Ивановский Торрент трекер
Яндекс.Погода
 

[Цитировать]
HUNTER

Иван Царевич и Серый Волк
Страна: Россия
Жанр: мультфильм, комедия, приключения
Продолжительность: 01:25:58
Год выпуска: 2011
Режиссёр: Владимир Торопчин
Роли озвучивали:
Никита Ефремов
Иван Охлобыстин
Артур Смольянинов
Лия Ахеджакова
Кристина Асмус
Виктор Сухоруков
Сергей Гармаш
Михаил Боярский
Татьяна Бунина
Сергей Русскин
Описание:
Увлекательная история от создателей богатырской трилогии, в которой героев русских народных сказок ждут новые приключения, опасности и забавные ситуации.
Доп. информация: Рип Captain_Max.

Качество: HDRip, исходник - BDRip 720p
Формат: AVI
Видео: 656x352 (1.86:1), 23.976 fps, XviD build 64 ~1088 kbps avg, 0.20 bit/pixel
Аудио: 48 kHz, MPEG Layer 3, 2 ch, ~128.00 kbps avg
Сэмпл

Подробные технические данные

ОбщееПолное имя : D:\Torrent\Иван Царевич и Серый Волк_745\Иван Царевич и Серый Волк_745_HDRip.aviФормат : AVIФормат/Информация : Audio Video InterleaveРазмер файла : 754 МбайтПродолжительность : 1 ч. 25 м.Общий поток : 1226 Кбит/секПрограмма кодирования : VirtualDubMod 1.5.10.3 | www.virtualdub-fr.org || (build 2550/release)Библиотека кодирования : VirtualDubMod build 2550/release
ВидеоИдентификатор : 0Формат : MPEG-4 VisualПрофиль формата : Advanced Simple@L5Параметр BVOP формата : 1Параметр QPel формата : НетПараметр GMC формата : Без точки переходаПараметр матрицы формата : ВыборочнаяИдентификатор кодека : XVIDИдентификатор кодека/Подсказка : XviDПродолжительность : 1 ч. 25 м.Битрейт : 1088 Кбит/секШирина : 656 пикселейВысота : 352 пикселяСоотношение сторон : 1,864Частота кадров : 23,976 кадра/секЦветовое пространство : YUVСубдискретизация насыщенности : 4:2:0Битовая глубина : 8 битТип развёртки : ПрогрессивнаяМетод сжатия : С потерямиБит/(Пиксели*Кадры) : 0.197Размер потока : 669 Мбайт (89%)Библиотека кодирования : XviD 64
АудиоИдентификатор : 1Формат : MPEG AudioВерсия формата : Version 1Профиль формата : Layer 3Идентификатор кодека : 55Идентификатор кодека/Подсказка : MP3Продолжительность : 1 ч. 25 м.Вид битрейта : ПостоянныйБитрейт : 128 Кбит/секКаналы : 2 каналаЧастота : 48,0 КГцМетод сжатия : С потерямиРазмер потока : 78,7 Мбайт (10%)Выравнивание : Соединение по промежуткамПродолжительность промежутка : 42 мс. (1,00 видеокадр)Время предзагрузки промежутка : 504 мс.Библиотека кодирования : LAME3.98rНастройки программы : -m s -V 4 -q 0 -lowpass 17 -b 128

Скриншоты


Показать сообщения:    

Текущее время: 24-Сен 04:14

Часовой пояс: UTC - 1


Вы не можете начинать темы
Вы не можете отвечать на сообщения
Вы не можете редактировать свои сообщения
Вы не можете удалять свои сообщения
Вы не можете голосовать в опросах
Вы не можете прикреплять файлы к сообщениям
Вы не можете скачивать файлы

!ВНИМАНИЕ!
Сайт не предоставляет электронные версии произведений, а занимается лишь коллекционированием и каталогизацией ссылок, присылаемых и публикуемых на форуме нашими читателями. Если вы являетесь правообладателем какого-либо представленного материала и не желаете, чтобы ссылка на него находилась в нашем каталоге, свяжитесь с нами, и мы незамедлительно удалим ее. Файлы для обмена на трекере предоставлены пользователями сайта, и администрация не несет ответственности за их содержание. Просьба не заливать файлы, защищенные авторскими правами, а также файлы нелегального содержания!