Ивановский Торрент трекер
Яндекс.Погода
DL-List and Torrent activity
Size:  11.51 GB   |    Registered:  4 years 8 months   |    Completed:  0 times
DL-List: None

Seeder not seen: Never

 
     
 
 
 

[Quote]
HUNTER

Исход: Цари и боги / Exodus: Gods and Kings
Страна: Великобритания, США, Испания
Студия: Chernin Entertainment
Жанр: драма, приключения
Год выпуска: 2014
Продолжительность: 02:30:20
Перевод: Профессиональный (дублированный) (Rus, Ukr)
Перевод 2: Одноголосый закадровый Д.Есарев
Cубтитры: Russian (Forced, Full), Ukrainian, English (Full, SDH, Commentary)
Оригинальная аудиодорожка: английский
Режиссер: Ридли Скотт / Ridley Scott
В ролях: Кристиан Бэйл, Джоэл Эдгертон, Джон Туртурро, Аарон Пол, Бен Мендельсон, Мария Вальверде, Сигурни Уивер, Бен Кингсли, Хиам Аббасс, Исаак Эндрюс
Описание: Ветхозаветная история о великом пророке Моисее и освобождении еврейского народа из египетского плена. Моисей появился на свет в те времена, когда фараон приказал убивать всех новорожденных мальчиков еврейского происхождения. Чтобы спасти его, мать положила малыша в корзину из тростника и отправила вниз по Нилу.
Ребенка нашла дочь фараона, которая усыновила его и растила рядом с Рамсесом - будущим фараоном. Много лет спустя, став мужчиной, Моисей бежит из Египта, а затем возвращается туда по велению Господа, чтобы избавить свой народ от оков рабства...

Тип релиза: BDRip 720p
Контейнер: MKV
Видео: 1280x534 at 23.976 fps, x264@L4.1, ~6500 kbps avg
Аудио: Russian: 48 kHz, DTS, 3/2 (L,C,R,l,r) + LFE ch, ~768.00 kbps avg |Дубляж, Blu-ray EUR|
Аудио 2: Ukrainian: 48 kHz, AC3, 3/2 (L,C,R,l,r) + LFE ch, ~448.00 kbps avg |Дубляж, Blu-ray EUR|
Аудио 3: Russian: 48 kHz, DTS, 3/2 (L,C,R,l,r) + LFE ch, ~1536.00 kbps avg |Одноголосый закадровый, Д.Есарев|
Аудио 4: English: 48 kHz, DTS, 3/2 (L,C,R,l,r) + LFE ch, ~1536.00 kbps avg
Аудио 5: English: 48 kHz, AC3, 2/0 (L,R) ch, ~224.00 kbps avg |Audio Commentary by Director/Producer Ridley Scott and Co-Screenwriter|
Формат субтитров: softsub (SRT)

MediaInfo

Format : Matroska
Format version : Version 4 / Version 2
File size : 11.5 GiB
Duration : 2h 30mn
Overall bit rate : 11.0 Mbps
Movie name : Exodus: Gods and Kings (2014) - Release for HDCLUB
Encoded date : UTC 2015-04-02 07:11:18
Writing application : mkvmerge v7.1.0 ('Good Love') 64bit built on Jul 27 2014 13:06:55
Writing library : libebml v1.3.0 + libmatroska v1.4.1
Cover : Yes
DURATION : 02:25:32.558000000
NUMBER_OF_FRAMES : 2388
NUMBER_OF_BYTES : 124826
_STATISTICS_WRITING_APP : mkvmerge v7.1.0 ('Good Love') 64bit built on Jul 27 2014 13:06:55
_STATISTICS_WRITING_DATE_UTC : 2015-04-02 07:11:18
_STATISTICS_TAGS : BPS DURATION NUMBER_OF_FRAMES NUMBER_OF_BYTES
Video
ID : 1
Format : AVC
Format/Info : Advanced Video Codec
Format profile : High@L4.1
Format settings, CABAC : Yes
Format settings, ReFrames : 12 frames
Codec ID : V_MPEG4/ISO/AVC
Duration : 2h 30mn
Bit rate : 6 500 Kbps
Width : 1 280 pixels
Height : 534 pixels
Display aspect ratio : 2.40:1
Frame rate mode : Constant
Frame rate : 23.976 fps
Color space : YUV
Chroma subsampling : 4:2:0
Bit depth : 8 bits
Scan type : Progressive
Bits/(Pixel*Frame) : 0.397
Stream size : 6.60 GiB (57%)
Title : Exodus: Gods and Kings (2014) - Release for HDCLUB
Writing library : x264 core 142 r2431+42 c69a006 tMod [8-bit@all X86_64]
Encoding settings : cabac=1 / ref=12 / deblock=1:-3:-3 / analyse=0x3:0x133 / me=umh / subme=10 / psy=1 / fade_compensate=0.00 / psy_rd=1.05:0.00 / mixed_ref=1 / me_range=32 / chroma_me=1 / trellis=2 / 8x8dct=1 / cqm=0 / deadzone=21,11 / fast_pskip=1 / chroma_qp_offset=-2 / threads=12 / lookahead_threads=2 / sliced_threads=0 / nr=0 / decimate=0 / interlaced=0 / bluray_compat=0 / constrained_intra=0 / fgo=0 / bframes=9 / b_pyramid=2 / b_adapt=2 / b_bias=0 / direct=3 / weightb=1 / open_gop=0 / weightp=2 / keyint=250 / keyint_min=23 / scenecut=40 / intra_refresh=0 / rc_lookahead=0 / rc=2pass / mbtree=0 / bitrate=6500 / ratetol=1.0 / qcomp=0.65 / qpmin=0:0:0 / qpmax=69:69:69 / qpstep=4 / cplxblur=20.0 / qblur=0.5 / vbv_maxrate=50000 / vbv_bufsize=62500 / nal_hrd=none / filler=0 / ip_ratio=1.30 / pb_ratio=1.20 / aq=1:0.75 / aq-sensitivity=10.00 / aq-factor=1.00:1.00:1.00 / aq2=0 / aq3=0 / zones=20910,20955,b=1.5/138157,138464,b=1.5/138768,140032,b=1.5/171691,171741,b=1.5/171816,171918,b=1.5/172873,173125,b=1.5/191412,191655,b=2/206120,206154,b=1.5/206160,216267,b=0.5
Language : English
Default : Yes
Forced : No
Matrix coefficients : BT.709
DURATION : 02:30:20.178000000
NUMBER_OF_FRAMES : 216268
NUMBER_OF_BYTES : 7322367318
_STATISTICS_WRITING_APP : mkvmerge v7.1.0 ('Good Love') 64bit built on Jul 27 2014 13:06:55
_STATISTICS_WRITING_DATE_UTC : 2015-04-02 07:11:18
_STATISTICS_TAGS : BPS DURATION NUMBER_OF_FRAMES NUMBER_OF_BYTES
Audio #1
ID : 2
Format : DTS
Format/Info : Digital Theater Systems
Mode : 16
Format settings, Endianness : Big
Codec ID : A_DTS
Duration : 2h 30mn
Bit rate mode : Constant
Bit rate : 768 Kbps
Channel(s) : 6 channels
Channel positions : Front: L C R, Side: L R, LFE
Sampling rate : 48.0 KHz
Bit depth : 24 bits
Compression mode : Lossy
Stream size : 826 MiB (7%)
Title : DTS 5.1 @ 768 kbps - DUB, Blu-ray EUR
Language : Russian
Default : Yes
Forced : No
Audio #2
ID : 3
Format : AC-3
Format/Info : Audio Coding 3
Mode extension : CM (complete main)
Format settings, Endianness : Big
Codec ID : A_AC3
Duration : 2h 30mn
Bit rate mode : Constant
Bit rate : 448 Kbps
Channel(s) : 6 channels
Channel positions : Front: L C R, Side: L R, LFE
Sampling rate : 48.0 KHz
Bit depth : 16 bits
Compression mode : Lossy
Stream size : 482 MiB (4%)
Title : AC3 5.1 @ 448 kbps - DUB, Blu-ray EUR
Language : Ukrainian
Default : No
Forced : No
Audio #3
ID : 4
Format : DTS
Format/Info : Digital Theater Systems
Mode : 16
Format settings, Endianness : Big
Codec ID : A_DTS
Duration : 2h 30mn
Bit rate mode : Constant
Bit rate : 1 509 Kbps
Channel(s) : 6 channels
Channel positions : Front: L C R, Side: L R, LFE
Sampling rate : 48.0 KHz
Bit depth : 24 bits
Compression mode : Lossy
Stream size : 1.58 GiB (14%)
Title : DTS 5.1 @ 1536 kbps - AVO, D.Esarev
Language : Russian
Default : No
Forced : No
Audio #4
ID : 5
Format : DTS
Format/Info : Digital Theater Systems
Mode : 16
Format settings, Endianness : Big
Codec ID : A_DTS
Duration : 2h 30mn
Bit rate mode : Constant
Bit rate : 1 509 Kbps
Channel(s) : 6 channels
Channel positions : Front: L C R, Side: L R, LFE
Sampling rate : 48.0 KHz
Bit depth : 24 bits
Compression mode : Lossy
Stream size : 1.58 GiB (14%)
Title : DTS 5.1 @ 1536 kbps
Language : English
Default : No
Forced : No
Audio #5
ID : 6
Format : AC-3
Format/Info : Audio Coding 3
Mode extension : CM (complete main)
Format settings, Endianness : Big
Codec ID : A_AC3
Duration : 2h 30mn
Bit rate mode : Constant
Bit rate : 224 Kbps
Channel(s) : 2 channels
Channel positions : Front: L R
Sampling rate : 48.0 KHz
Bit depth : 16 bits
Compression mode : Lossy
Stream size : 241 MiB (2%)
Title : AC3 2.0 @ 224 kbps - Commentary by Director/Producer Ridley Scott and Co-Screenwriter Jeffrey Caine
Language : English
Default : No
Forced : No
Text #1
ID : 7
Format : UTF-8
Codec ID : S_TEXT/UTF8
Codec ID/Info : UTF-8 Plain Text
Title : Forced, iTunes
Language : Russian
Default : Yes
Forced : No
Text #2
ID : 8
Format : UTF-8
Codec ID : S_TEXT/UTF8
Codec ID/Info : UTF-8 Plain Text
Title : iTunes
Language : Russian
Default : No
Forced : No
Text #3
ID : 9
Format : UTF-8
Codec ID : S_TEXT/UTF8
Codec ID/Info : UTF-8 Plain Text
Title : iTunes
Language : Ukrainian
Default : No
Forced : No
Text #4
ID : 10
Format : UTF-8
Codec ID : S_TEXT/UTF8
Codec ID/Info : UTF-8 Plain Text
Title : Commentary, Blu-ray EUR
Language : Russian
Default : No
Forced : No
Text #5
ID : 11
Format : UTF-8
Codec ID : S_TEXT/UTF8
Codec ID/Info : UTF-8 Plain Text
Language : English
Default : No
Forced : No
Text #6
ID : 12
Format : UTF-8
Codec ID : S_TEXT/UTF8
Codec ID/Info : UTF-8 Plain Text
Title : SDH
Language : English
Default : No
Forced : No
Text #7
ID : 13
Format : UTF-8
Codec ID : S_TEXT/UTF8
Codec ID/Info : UTF-8 Plain Text
Title : Commentary
Language : English
Default : No
Forced : No
Menu
00:00:00.000 : en:00:00:00.000
00:03:55.402 : en:00:03:55.402
00:06:51.995 : en:00:06:51.995
00:11:47.707 : en:00:11:47.707
00:14:29.452 : en:00:14:29.452
00:18:37.658 : en:00:18:37.658
00:22:15.834 : en:00:22:15.834
00:26:51.151 : en:00:26:51.151
00:30:31.288 : en:00:30:31.288
00:36:41.366 : en:00:36:41.366
00:40:48.321 : en:00:40:48.321
00:44:49.937 : en:00:44:49.937
00:48:47.800 : en:00:48:47.800
00:51:16.448 : en:00:51:16.448
00:54:22.217 : en:00:54:22.217
00:57:32.658 : en:00:57:32.658
01:00:31.169 : en:01:00:31.169
01:04:41.544 : en:01:04:41.544
01:06:49.047 : en:01:06:49.047
01:11:01.883 : en:01:11:01.883
01:16:53.692 : en:01:16:53.692
01:21:18.040 : en:01:21:18.040
01:24:30.357 : en:01:24:30.357
01:28:08.533 : en:01:28:08.533
01:30:54.157 : en:01:30:54.157
01:34:14.566 : en:01:34:14.566
01:37:20.543 : en:01:37:20.543
01:39:20.204 : en:01:39:20.204
01:42:40.321 : en:01:42:40.321
01:46:50.070 : en:01:46:50.070
01:49:02.661 : en:01:49:02.661
01:52:18.315 : en:01:52:18.315
01:57:29.876 : en:01:57:29.876
02:00:23.842 : en:02:00:23.842
02:05:41.325 : en:02:05:41.325
02:07:31.269 : en:02:07:31.269
02:13:38.469 : en:02:13:38.469
02:16:21.882 : en:02:16:21.882
02:19:39.997 : en:02:19:39.997
02:23:19.800 : en:02:23:19.800

Скриншоты

[iv-torrents.ru].t42696.torrent
Torrent: Registered [ 2015-04-02 17:33 ] · 4B9D0C97CB292C5701E0156241061C4C2AA844E3

Download .torrent

Download

29 KB

Status: checked
Completed: 0 times
Size: 11.51 GB
terms.php
Похожие темы


Display posts:    

Current time is: 11-Dec 23:04

All times are UTC ± 0


You cannot post new topics in this forum
You cannot reply to topics in this forum
You cannot edit your posts in this forum
You cannot delete your posts in this forum
You cannot vote in polls in this forum
You cannot attach files in this forum
You can download files in this forum

!ATTENTION!
The site does not give electronic versions of products, and is engaged only in a collecting and cataloguing of the references sent and published at a forum by our readers. If you are the legal owner of any submitted material and do not wish that the reference to it was in our catalogue, contact us and we shall immediately remove her. Files for an exchange on tracker are given by users of a site, and the administration does not bear the responsibility for their maintenance. The request to not fill in the files protected by copyrights, and also files of the illegal maintenance!