Ивановский Торрент трекер
Яндекс.Погода
 

[Quote]
HUNTER

Ирландский маршрут / Route irish
Страна: Франция, Великобритания, Италия, Испания, Бельгия
Студия: Sixteen Films, Why Not Productions, Wild Bunch
Жанр: драма, детектив
Год выпуска: 2010
Продолжительность: 01:48:39
Перевод: Профессиональный (двухголосый закадровый) - студия NLS
Перевод 2: Одноголосый закадровый - den904 - ненормативная лексика
Субтитры: русские (lingua.pura), английские
Оригинальная аудиодорожка: английский
Режиссер: Кен Лоуч / Ken Loach
В ролях: Марк Вомак, Андреа Лоу, Джон Бишоп, Джофф Белл, Джек Форчун, Талиб Расоол, Крэйг Лундберг, Тревор Уильямс, Расселл Андерсон, Джэми Мичи, Брэдли Томпсон, Дэниел Фой, Найва Нимри, Мэгги Саузерс, Ар Дэвид, Тони Шумахер, Гари Каргилл, Донна Элсо, Стивен Лорд, Джэймс Лок, Натали Флуд, Энди Двайер, Табан Отман, Али Карами, Насредин Банда, Ник Бэти, Тайф Басил, Раний Хавра, Малик Амир, Мохсен Фахир, Асил Салам, Кевин Бёртон, Тагрид Асад, Омар Абделаариз, Сайида Хассан, Мартин Вебстер, Пол Дж. Дав, Коннор Харрисон, Хинд Камиль, Роберт Ро-Льюис
Описание: История частного охранника в Ираке, который не принимает официальные объяснения по поводу смерти друга и собирается самостоятельно раскрыть правду.
Доп. информация: Рип, сделанный с этого исходника - https://rutracker.org/forum/viewtopic.php?t=6122009, найден в сети.
Сэмпл: https://disk.yandex.ru/i/dd_hJnKA1mxBWQ
Тип релиза: BDRip 1080p
Контейнер: MKV
Видео: 9965 Кбит/сек, AVC 1920*1038 (1,85:1), 24,000 кадра/сек, CABAC
Аудио: Русский, 192 Кбит/сек, 48,0 КГц, 2 канала, AC-3 - NLS
Аудио 2: Русский, 384 Кбит/сек, 48,0 КГц, 6 каналов, AC-3 - den904
Аудио 3: Английский, 1509 Кбит/сек, 48,0 КГц, 16 бит, 6 каналов, DTS
Формат субтитров: softsub (SRT)

MediaInfo

Общее
Уникальный идентификатор : 179892688997434815306436260602909433050 (0x87561257C3356EB6DF2C310548D21CDA)
Полное имя : D:\MONAR\Видео\Художественные фильмы\Зарубежное кино\Ирландский маршрут (2010) BDRip 1080p.mkv
Формат : Matroska
Версия формата : Version 4
Размер файла : 9,15 Гбайт
Продолжительность : 1 ч. 48 м.
Общий поток : 12,1 Мбит/сек
Название фильма : Route irish (2010)
Дата кодирования : UTC 2021-10-13 07:04:07
Программа кодирования : mkvmerge v62.0.0 ('Apollo') 64-bit
Библиотека кодирования : libebml v1.4.2 + libmatroska v1.6.4
Видео
Идентификатор : 1
Формат : AVC
Формат/Информация : Advanced Video Codec
Профиль формата : [email protected]
Настройки формата : CABAC / 4 Ref Frames
Параметр CABAC формата : Да
Параметр RefFrames формата : 4 кадра
Идентификатор кодека : V_MPEG4/ISO/AVC
Продолжительность : 1 ч. 48 м.
Битрейт : 9 965 Кбит/сек
Ширина : 1 920 пикселей
Высота : 1 038 пикселей
Соотношение сторон : 1,85:1
Режим частоты кадров : Постоянный
Частота кадров : 24,000 кадра/сек
Цветовое пространство : YUV
Субдискретизация насыщенности : 4:2:0
Битовая глубина : 8 бит
Тип развёртки : Прогрессивная
Бит/(Пиксели*Кадры) : 0.208
Размер потока : 7,56 Гбайт (83%)
Библиотека кодирования : x264 core 114 r1913 5fd3dce
Настройки программы : cabac=1 / ref=4 / deblock=1:-3:-3 / analyse=0x3:0x113 / me=umh / subme=9 / psy=1 / psy_rd=1.10:0.15 / mixed_ref=1 / me_range=32 / chroma_me=1 / trellis=2 / 8x8dct=1 / cqm=2 / deadzone=21,11 / fast_pskip=0 / chroma_qp_offset=-2 / threads=12 / sliced_threads=0 / nr=0 / decimate=1 / interlaced=0 / constrained_intra=0 / bframes=6 / b_pyramid=2 / b_adapt=2 / b_bias=0 / direct=3 / weightb=1 / open_gop=0 / weightp=2 / keyint=250 / keyint_min=24 / scenecut=40 / intra_refresh=0 / rc_lookahead=60 / rc=2pass / mbtree=1 / bitrate=9965 / ratetol=2.0 / qcomp=0.70 / qpmin=1 / qpmax=63 / qpstep=4 / cplxblur=20.0 / qblur=0.5 / vbv_maxrate=40000 / vbv_bufsize=30000 / nal_hrd=none / ip_ratio=1.40 / aq=1:0.90
Язык : English
Default : Да
Forced : Нет
Аудио #1
Идентификатор : 2
Формат : AC-3
Формат/Информация : Audio Coding 3
Коммерческое название : Dolby Digital
Идентификатор кодека : A_AC3
Продолжительность : 1 ч. 48 м.
Вид битрейта : Постоянный
Битрейт : 192 Кбит/сек
Каналы : 2 канала
Channel layout : L R
Частота : 48,0 КГц
Частота кадров : 31,250 кадров/сек (1536 SPF)
Метод сжатия : С потерями
Размер потока : 149 Мбайт (2%)
Заголовок : DVO
Язык : Russian
Service kind : Complete Main
Default : Да
Forced : Нет
Аудио #2
Идентификатор : 3
Формат : AC-3
Формат/Информация : Audio Coding 3
Коммерческое название : Dolby Digital
Идентификатор кодека : A_AC3
Продолжительность : 1 ч. 48 м.
Вид битрейта : Постоянный
Битрейт : 384 Кбит/сек
Каналы : 6 каналов
Channel layout : L R C LFE Ls Rs
Частота : 48,0 КГц
Частота кадров : 31,250 кадров/сек (1536 SPF)
Метод сжатия : С потерями
Размер потока : 298 Мбайт (3%)
Заголовок : VO
Язык : Russian
Service kind : Complete Main
Default : Да
Forced : Нет
Аудио #3
Идентификатор : 4
Формат : DTS
Формат/Информация : Digital Theater Systems
Идентификатор кодека : A_DTS
Продолжительность : 1 ч. 48 м.
Вид битрейта : Постоянный
Битрейт : 1 509 Кбит/сек
Каналы : 6 каналов
Channel layout : C L R Ls Rs LFE
Частота : 48,0 КГц
Частота кадров : 93,750 кадра/сек (512 SPF)
Битовая глубина : 16 бит
Метод сжатия : С потерями
Размер потока : 1,15 Гбайт (13%)
Заголовок : original
Язык : English
Default : Нет
Forced : Нет
Текст #1
Идентификатор : 5
Формат : UTF-8
Идентификатор кодека : S_TEXT/UTF8
Идентификатор кодека/Информация : UTF-8 Plain Text
Продолжительность : 1 ч. 44 м.
Битрейт : 108 бит/сек
Count of elements : 1278
Размер потока : 82,9 Кбайт (0%)
Заголовок : full
Язык : Russian
Default : Нет
Forced : Нет
Текст #2
Идентификатор : 6
Формат : UTF-8
Идентификатор кодека : S_TEXT/UTF8
Идентификатор кодека/Информация : UTF-8 Plain Text
Продолжительность : 1 ч. 45 м.
Битрейт : 60 бит/сек
Count of elements : 1285
Размер потока : 46,8 Кбайт (0%)
Заголовок : full
Язык : English
Default : Нет
Forced : Нет
Меню
00:00:00.000 : en:Chapter 1
00:09:38.708 : en:Chapter 2
00:20:04.333 : en:Chapter 3
00:33:40.542 : en:Chapter 4
00:41:12.750 : en:Chapter 5
00:50:20.250 : en:Chapter 6
00:57:13.708 : en:Chapter 7
01:06:45.375 : en:Chapter 8
01:17:38.333 : en:Chapter 9
01:31:59.000 : en:Chapter 10
01:40:15.458 : en:Chapter 11
01:46:37.375 : en:Chapter 12

Скриншоты

13.10.21 Торрент-файл перезалит. Исправлен рассинхрон. Сэмпл и отчёт перезалиты.


Display posts:    

Current time is: 28-Oct 09:20

All times are UTC ± 0


You cannot post new topics in this forum
You cannot reply to topics in this forum
You cannot edit your posts in this forum
You cannot delete your posts in this forum
You cannot vote in polls in this forum
You cannot attach files in this forum
You cannot download files in this forum

!ATTENTION!
The site does not give electronic versions of products, and is engaged only in a collecting and cataloguing of the references sent and published at a forum by our readers. If you are the legal owner of any submitted material and do not wish that the reference to it was in our catalogue, contact us and we shall immediately remove her. Files for an exchange on tracker are given by users of a site, and the administration does not bear the responsibility for their maintenance. The request to not fill in the files protected by copyrights, and also files of the illegal maintenance!