Ивановский Торрент трекер
Яндекс.Погода
 

[Цитировать]
HUNTER

Irish Tarmac Rally Championship 2015 / Round 04 / International Rally of the Lakes / Review

Вид спорта: Автогонки / Ралли
Дата: 1-3 мая, 2015
Место проведения: Killarney, Ireland
Трансляция: BT Sport 2 HD
Язык комментария: Английский
Доп. информация: Удалены медийные паузы
Автор релиза: mex_mangust

Качество: HDWeb-Rip 1080i (OTT-сервис)
Формат: MKV
Видео: H.264 / 1920x1080 / 25 fps / 9616 kbps
Аудио: AC3 / 48 mhz / Stereo / 192 kbps

Media Info

General
Unique ID : 246877356978394550056648326057150738264 (0xB9BAD974DF6CE2A9ABEE825132B96F58)
Complete name : G:\torrents\RUTRACKER.ORG-ITRC-20150503-Rally-of-the-Lake-Review-EN-1080i-mex.mkv
Format : Matroska
Format version : Version 4 / Version 2
File size : 3.17 GiB
Duration : 45mn 23s
Overall bit rate : 10.0 Mbps
Encoded date : UTC 2015-06-05 04:42:57
Writing application : mkvmerge v7.9.0 ('Birds') 64bit
Writing library : libebml v1.3.1 + libmatroska v1.4.2
_STATISTICS_WRITING_APP : mkvmerge v7.9.0 ('Birds') 64bit
_STATISTICS_WRITING_DATE_UTC : 2015-06-05 04:42:57
_STATISTICS_TAGS : BPS DURATION NUMBER_OF_FRAMES NUMBER_OF_BYTES
DURATION : 00:45:23.320000000
NUMBER_OF_FRAMES : 82992
NUMBER_OF_BYTES : 63737856
Video
ID : 1
Format : AVC
Format/Info : Advanced Video Codec
Format profile : High@L4
Format settings, CABAC : Yes
Format settings, ReFrames : 3 frames
Codec ID : V_MPEG4/ISO/AVC
Duration : 45mn 23s
Bit rate : 9 616 Kbps
Width : 1 920 pixels
Height : 1 080 pixels
Display aspect ratio : 16:9
Frame rate mode : Constant
Frame rate : 25.000 fps
Standard : Component
Color space : YUV
Chroma subsampling : 4:2:0
Bit depth : 8 bits
Scan type : Interlaced
Scan order : Top Field First
Bits/(Pixel*Frame) : 0.186
Stream size : 3.05 GiB (96%)
Title : mm
Default : Yes
Forced : No
Color range : Limited
Color primaries : BT.709
Transfer characteristics : BT.709
Matrix coefficients : BT.709
Audio
ID : 2
Format : AC-3
Format/Info : Audio Coding 3
Mode extension : CM (complete main)
Format settings, Endianness : Big
Codec ID : A_AC3
Duration : 45mn 23s
Bit rate mode : Constant
Bit rate : 192 Kbps
Channel(s) : 2 channels
Channel positions : Front: L R
Sampling rate : 48.0 KHz
Compression mode : Lossy
Delay relative to video : 136ms
Stream size : 62.3 MiB (2%)
Title : BT Sport
Language : English
Default : Yes
Forced : No

Продолжительность

00:45:23

Скриншоты



Показать сообщения:    

Текущее время: 15-Дек 16:06

Часовой пояс: UTC ± 0


Вы не можете начинать темы
Вы не можете отвечать на сообщения
Вы не можете редактировать свои сообщения
Вы не можете удалять свои сообщения
Вы не можете голосовать в опросах
Вы не можете прикреплять файлы к сообщениям
Вы не можете скачивать файлы

!ВНИМАНИЕ!
Сайт не предоставляет электронные версии произведений, а занимается лишь коллекционированием и каталогизацией ссылок, присылаемых и публикуемых на форуме нашими читателями. Если вы являетесь правообладателем какого-либо представленного материала и не желаете, чтобы ссылка на него находилась в нашем каталоге, свяжитесь с нами, и мы незамедлительно удалим ее. Файлы для обмена на трекере предоставлены пользователями сайта, и администрация не несет ответственности за их содержание. Просьба не заливать файлы, защищенные авторскими правами, а также файлы нелегального содержания!