Важное объявление!
У Нас Все раздачи мультитрекерные, при нуле пиров в релизах, можете смело вставать на закачку!
 
Автор Сообщение

Vanya_o3

[Профиль] [ЛС]

Адмиралъ«Ибо крепка, как смерть, любовь»-
Страна: Россия
Жанр: боевик, драма
Год выпуска: 2008
Продолжительность: 02:04:00-Режиссер: Андрей Кравчук
Сценарий: Зоя Кудря, Владимир Валуцкий
Продюсер: Джаник Файзиев, Анатолий Максимов, Дмитрий Юрков-В ролях: Константин Хабенский, Елизавета Боярская, Сергей Безруков, Анна Ковальчук, Владислав Ветров, Егор Бероев, Ришар Боринжер, Виктор Вержбицкий, Фёдор Бондарчук, Игорь Савочкин, Кирилл Плетнев, Олег Фомин, Анатолий Пашинин, Алексей Кравченко, Владимир Зайцев, Максим Дрозд, Николай Бурляев-Описание: Фильм, рассказывающий о жизни и любви выдающегося боевого офицера военно-морского флота, полярного исследователя, а затем ставшего адмиралом, верховного правителя России — Александра Васильевича Колчака и Анны Тимиревой. События разворачиваются в период 1916—1920 годов на фоне крушения Российской империи, двух революций и Гражданской войны.-Качество: BDRip
Исходник: Blu-Ray
Формат: m4v
Видео кодек: H.264
Аудио кодек: AAC
Видео: 1024х432, 3500 Kbps, 23,976 fps
Аудио RUS: 48 kHz, AAC, 2ch, 165 kbps

MI

Полное имя : F:\рипы\Admiral_new_new.m4v
Формат : MPEG-4
Идентификатор кодека : M4V
Размер файла : 3,18 Гбайт
Продолжительность : 2 ч. 4 м.
Общий поток : 3675 Кбит/сек
Название фильма : Адмиралъ
Исполнитель : Andrei Kravchuk
Жанр : Drama
Дата записи : 2008
Дата кодирования : UTC 2012-01-13 12:16:39
Дата пометки : UTC 2012-01-14 12:32:30
Обложка : Yes
desc : Фильм, рассказывающий о жизни и любви выдающегося боевого офицера военно-морского флота, полярного исследователя, а затем ставшего адмиралом, верховного правителя России — Александра Васильевича Колчака и Анны Тимиревой.
ldes : Фильм, рассказывающий о жизни и любви выдающегося боевого офицера военно-морского флота, полярного исследователя, а затем ставшего адмиралом, верховного правителя России — Александра Васильевича Колчака и Анны Тимиревой. События разворачиваются в период 1916—1920 годов на фоне крушения Российской империи, двух революций и Гражданской войны.
hdvd : 1
stik : 9
xid : iPad:vendor_id:2008-280938
iTunMOVI : / / / / cast / / / name / Константин Хабенский / / / name / Елизавета Боярская / / / name / Сергей Безруков / / / name / Анна Ковальчук / / / name / Владислав Ветров / / / name / Егор Бероев / / / name / Ришар Боринже / / / name / Николай Бурляев / / / name / Виктор Вержбицкий / / / name / Фёдор Бондарчук / / / directors / / / name / Андрей Кравчук / / / producers / / / name / Джаник Файзиев / / / name / Анатолий Максимов / / / name / Дмитрий Юрков / / / screenwriters / / / name / Зоя Кудря / / / name / Владимир Валуцкий / / / /
Видео
Идентификатор : 1
Формат : AVC
Формат/Информация : Advanced Video Codec
Профиль формата : High@L3.2
Параметр CABAC формата : Да
Параметр ReFrames формата : 11 кадры
Параметры GOP формата : M=8, N=19
Идентификатор кодека : avc1
Идентификатор кодека/Информация : Advanced Video Coding
Продолжительность : 2 ч. 4 м.
Вид битрейта : Переменный
Битрейт : 3500 Кбит/сек
Максимальный битрейт : 15,8 Мбит/сек
Ширина : 1024 пикс.
Высота : 432 пикс.
Соотношение сторон : 2,35:1
Режим частоты кадров : Переменный
Частота кадров : 23,976 кадр/сек
Минимальная частота кадров : 7,992 кадр/сек
Максимальная частота кадров : 24,015 кадр/сек
Цветовое пространство : YUV
Подвыборка цветности : 4:2:0
Битовая глубина : 8 бит
Тип развёртки : Прогрессивная
Бит/(Пиксели*Кадры) : 0.330
Размер потока : 3,03 Гбайт (95%)
Библиотека кодирования : x264 core 112
Настройки программы : cabac=1 / ref=11 / deblock=1:0:0 / analyse=0x3:0x113 / me=umh / subme=9 / psy=1 / psy_rd=1.00:0.00 / mixed_ref=1 / me_range=32 / chroma_me=1 / trellis=1 / 8x8dct=1 / cqm=0 / deadzone=21,11 / fast_pskip=1 / chroma_qp_offset=-2 / threads=3 / sliced_threads=0 / nr=0 / decimate=1 / interlaced=0 / constrained_intra=0 / bframes=9 / b_pyramid=2 / b_adapt=1 / b_bias=0 / direct=1 / weightb=1 / open_gop=0 / weightp=2 / keyint=240 / keyint_min=23 / scenecut=40 / intra_refresh=0 / rc_lookahead=40 / rc=2pass / mbtree=1 / bitrate=3500 / ratetol=1.0 / qcomp=0.60 / qpmin=3 / qpmax=51 / qpstep=4 / cplxblur=20.0 / qblur=0.5 / ip_ratio=1.40 / aq=1:1.00
Язык : English
Дата кодирования : UTC 2012-01-13 12:16:39
Дата пометки : UTC 2012-01-13 12:27:24
Основные цвета : BT.709-5, BT.1361, IEC 61966-2-4, SMPTE RP177
Характеристики трансфера : BT.709-5, BT.1361
Коэффициенты матрицы : BT.709-5, BT.1361, IEC 61966-2-4 709, SMPTE RP177
Аудио
Идентификатор : 2
Формат : AAC
Формат/Информация : Advanced Audio Codec
Профиль формата : LC
Идентификатор кодека : 40
Продолжительность : 2 ч. 4 м.
Вид битрейта : Переменный
Битрейт : 165 Кбит/сек
Максимальный битрейт : 281 Кбит/сек
Канал(ы) : 2 канала(ов)
Расположение каналов : Front: L R
Частота : 48,0 КГц
Метод сжатия : С потерями
Размер потока : 147 Мбайт (4%)
Язык : Russian
Дата кодирования : UTC 2012-01-13 12:26:36
Дата пометки : UTC 2012-01-13 12:27:24
Текст #1
Идентификатор : 3
Формат : Timed text
Режим смешивания : sbtl
Идентификатор кодека : tx3g
Продолжительность : 1 ч. 57 м.
Вид битрейта : Переменный
Битрейт : 71 бит/сек
Размер потока : 61,1 Кбайт (0%)
Язык : Russian
Дата кодирования : UTC 2012-01-13 12:27:23
Дата пометки : UTC 2012-01-13 12:27:24
Текст #2
Идентификатор : 4
Формат : Timed text
Режим смешивания : sbtl
Идентификатор кодека : tx3g
Продолжительность : 1 ч. 59 м.
Вид битрейта : Переменный
Битрейт : 48 бит/сек
Размер потока : 41,8 Кбайт (0%)
Язык : English
Дата кодирования : UTC 2012-01-13 12:27:24
Дата пометки : UTC 2012-01-13 12:27:24

Log

Код:
x264 [info]: frame I:2540  Avg QP:13.59  size: 71401  PSNR Mean Y:49.04 U:51.72 V:52.26 Avg:49.79 Global:49.15
x264 [info]: frame P:88106 Avg QP:16.66  size: 27166  PSNR Mean Y:46.13 U:49.04 V:49.56 Avg:46.93 Global:46.33
x264 [info]: frame B:87799 Avg QP:18.77  size:  7759  PSNR Mean Y:45.33 U:49.04 V:49.56 Avg:46.26 Global:45.51
x264 [info]: consecutive B-frames: 20.8% 36.8% 14.2% 12.9% 10.7%  4.1%  0.1%  0.0%  0.0%  0.2%
x264 [info]: mb I  I16..4: 11.4% 70.0% 18.7%
x264 [info]: mb P  I16..4:  1.7%  9.9%  1.8%  P16..4: 34.3% 29.4% 16.9%  0.0%  0.0%    skip: 6.0%
x264 [info]: mb B  I16..4:  0.2%  0.8%  0.2%  B16..8: 40.6% 12.9%  4.1%  direct: 5.5%  skip:35.9%  L0:43.0% L1:44.6% BI:12.4%
x264 [info]: 8x8 transform intra:73.2% inter:61.0%
x264 [info]: coded y,uvDC,uvAC intra: 85.1% 85.5% 68.4% inter: 39.8% 36.8% 8.0%
x264 [info]: i16 v,h,dc,p: 55% 10%  8% 26%
x264 [info]: i8 v,h,dc,ddl,ddr,vr,hd,vl,hu:  9%  8%  7% 10% 14% 14% 14% 12% 13%
x264 [info]: i4 v,h,dc,ddl,ddr,vr,hd,vl,hu:  8%  7%  4%  9% 16% 15% 15% 12% 14%
x264 [info]: i8c dc,h,v,p: 49% 19% 17% 14%
x264 [info]: Weighted P-Frames: Y:5.5% UV:3.5%
x264 [info]: ref P L0: 51.3% 12.9% 14.1%  5.9%  4.3%  3.1%  2.6%  1.5%  1.4%  1.2%  1.1%  0.5%  0.0%
x264 [info]: ref B L0: 74.0% 12.1%  5.3%  2.6%  1.9%  1.5%  1.2%  0.8%  0.6%  0.2%
x264 [info]: ref B L1: 93.6%  6.4%
x264 [info]: SSIM Mean Y:0.9841943 (18.012db)
x264 [info]: PSNR Mean Y:45.779 U:49.075 V:49.602 Avg:46.638 Global:45.935 kb/s:3499.89

Скриншоты

Для просмотра данного релиза на компьютере с ОС Windows рекомендуется использовать VLC media player
 
Показать сообщения:    

Текущее время: Сегодня 14:10

Часовой пояс: GMT



Вы не можете начинать темы
Вы не можете отвечать на сообщения
Вы не можете редактировать свои сообщения
Вы не можете удалять свои сообщения
Вы не можете голосовать в опросах
Вы не можете прикреплять файлы к сообщениям
Вы не можете скачивать файлы