INNA - WoW live session [2012г., Club, Dance, Pop, HDTVRip 1080p] :: Ивановский Торрент трекер
Важное объявление!
У Нас Все раздачи мультитрекерные, при нуле пиров в релизах, можете смело вставать на закачку!
Статистика раздачи
Размер:     |    Зарегистрирован:     |    Скачан:     |   
Нет
 
     
 
 
Автор Сообщение

HUNTER

Стаж:
4 года 11 месяцев
Сообщений:
66098

Репутация: 101

[+] [-]
Вне форума [Профиль] [ЛС]

INNA - WoW live session
-Год производства: 2012 г.
Страна: USA
Жанр: Club, Dance, Pop
Продолжительность: 00:03:38-Описание: Премьера нового видео от румынской певицы "Inna" в живом исполнение к песне "Wow"...
-Качество видео: HDTVRip 1080p
Формат видео: mp4
Видео кодек: MPEG-4 AVC
Аудио кодек: MP3
Видео: MPEG-4 AVC, 5858 Кбит/с, 1920x1080, 25.000 fps, 0.113 bit/pixel
Аудио: 48 kHz, MPEG Layer 3, 2 ch, ~144.00 kbps avg
-

Скриншоты

MediaInfo

Код: copyText_writeLink('this.parentNode.parentNode.nextSibling.nextSibling');
General
Complete name : D:\Торенты\Inna-Wow.Live.Session.2012.x264.HDTVRip.1080p.mp4
Format : MPEG-4
Format profile : Base Media / Version 2
Codec ID : mp42
File size : 156 MiB
Duration : 3mn 38s
Overall bit rate mode : Variable
Overall bit rate : 6 002 Kbps
Encoded date : UTC 2012-03-02 21:09:26
Tagged date : UTC 2012-03-02 21:09:26
gsst : 0
gstd : 218360
gssd : B4A7DD868MH1330809571612506
gshh : o-o.preferred.bru02t11.v8.cache4.c.youtube.com
Video
ID : 1
Format : AVC
Format/Info : Advanced Video Codec
Format profile : [url=mailto:High@L4.0]High@L4.0[/url]
Format settings, CABAC : Yes
Format settings, ReFrames : 1 frame
Codec ID : avc1
Codec ID/Info : Advanced Video Coding
Duration : 3mn 38s
Bit rate : 5 858 Kbps
Maximum bit rate : 10.1 Mbps
Width : 1 920 pixels
Height : 1 080 pixels
Display aspect ratio : 16:9
Frame rate mode : Constant
Frame rate : 25.000 fps
Color space : YUV
Chroma subsampling : 4:2:0
Bit depth : 8 bits
Scan type : Progressive
Bits/(Pixel*Frame) : 0.113
Stream size : 152 MiB (98%)
Tagged date : UTC 2012-03-02 21:09:27
Audio
ID : 2
Format : AAC
Format/Info : Advanced Audio Codec
Format profile : LC
Codec ID : 40
Duration : 3mn 38s
Bit rate mode : Variable
Bit rate : 144 Kbps
Maximum bit rate : 176 Kbps
Channel(s) : 2 channels
Channel positions : Front: L R
Sampling rate : 44.1 KHz
Compression mode : Lossy
Stream size : 3.68 MiB (2%)
Title : IsoMedia File Produced by Google, 5-11-2011
Encoded date : UTC 2012-03-02 21:09:27
Tagged date : UTC 2012-03-02 21:09:27
Group of music принимает заявки в стол заказов

_________________
Показать сообщения:    

Текущее время: Сегодня 07:19

Часовой пояс: GMT



Вы не можете начинать темы
Вы не можете отвечать на сообщения
Вы не можете редактировать свои сообщения
Вы не можете удалять свои сообщения
Вы не можете голосовать в опросах
Вы не можете прикреплять файлы к сообщениям
Вы не можете скачивать файлы