Важное объявление!
У Нас Все раздачи мультитрекерные, при нуле пиров в релизах, можете смело вставать на закачку!
 
Автор Сообщение

HUNTER

Стаж:
4 года 8 месяцев
Сообщений:
62044

Репутация: 101

[+] [-]
Вне форума [Профиль] [ЛС]

Professional Guide to Wireless Network Hacking and Penetration Testing
Год выпуска: 2015
Производитель: InfiniteSkills
Сайт производителя: http://www.infiniteskills.com/
Продолжительность: 04:52:08
Тип раздаваемого материала: Видеоурок
Язык: Английский
Описание: In this Professional Guide to Wireless Network Hacking and Penetration Testing training course, expert author Ric Messier will teach you the tools and techniques needed to effectively secure your 802.11 and Bluetooth networks. This course is designed for users that already have basic working knowledge of networking concepts.
You will start by learning the basics of 802.11, such as frequencies, access points, associations, and enterprise networks. From there, Ric will teach you how to secure your wireless network. This video tutorial also covers wireless attack tools and wireless attacks. You will also learn about access point attacks and Bluetooth, such as Bluetooth authentication, BT scanner, and how to protect Bluetooth. Finally, you will cover other wireless communications, such as WiMax, ZigBee, and RFID.
Once you have completed this computer based training course, you will be fully capable of securing your 802.11 and Bluetooth networks using the tools and techniques explained in this course.

Содержание

01. Introduction
Introduction And About The Author
What We Will Cover
System Requirements
Legal Issues
Penetration Testing
02. 802.11
802.11 Basics
Frequencies
Access Points
Ad-Hoc Versus Infrastructure Mode
Wireless Modes - ABGN
SSID, ESSID And BSSID
MAC Address
Associations
0209 Beaconing And Broadcasting
0210 Access Point Basics
0211 Enterprise Networks
0212 WiFi In Windows
0213 WiFi In Mac OS
0214 WiFi In Linux
03. Securing Your Wireless Network
0301 Authentication
0302 802.1X
0303 Radius
0304 Encryption
0305 WEP
0306 WPA
0307 WPA2
0308 WPS
0309 EAP
0310 Hiding Your Network
0311 Filtering
0312 Network Segmentation
0313 Default Configurations
04. Wireless Attack Tools
0401 Built-In Tools
0402 Kali Linux
0403 Kismet
0404 Aircrack-Ng
0405 WiFi Explorer
0406 Wireshark
0407 Wireless Attack Toolkit
0408 NetStumbler
0409 Ettercap
0410 Dsniff
0411 Airpwn
0412 Aireplay-Ng
0413 Fern
0414 WiFi Tap
0415 Cowpatty
0416 WiFi-Honey
05. Wireless Attacks
0501 Using Wireshark
0502 Capturing Network Packets
0503 Monitor Mode
0504 Investigating Packets
0505 Filtering
0506 Radio Traffic
0507 War Driving
0508 Frame Injection
0509 RADIUS Replay
0510 SSL Stripping
0511 De-Authentication
0512 Airodump
0513 Fake Authentication
06. Access Point Attacks
0601 Replay Attacks
0602 Cracking WEP - Part 1
0603 Cracking WEP - Part 2
0604 Cracking WPA
0605 Rogue Access Points
0606 Man In The Middle Attacks
0607 MAC Changes
07. Bluetooth
0701 Bluetooth Overview
0702 Bluetooth Authentication
0703 Bluetooth Profiles
0704 Bluesnarfer
0705 Blueranger
0706 BT Scanner
0707 Protecting Bluetooth
0708 Other Tools
08. Other Wireless
0801 WiMax
0802 Near Field Communication
0803 ZigBee
0804 RFID
09. Conclusion
0901 What Have We Covered
0902 Next Steps
0903 Conclusion
Файлы примеров: не предусмотрены
Формат видео: MP4
Видео: AVC, 1280x720 (16:9), 15.000 fps, ~127 Kbps avg, 0.009 bit/pixel
Аудио: 48.0 KHz, AAC LC, 2 ch, ~125 Kbps

Mediainfo

General
Complete name : 0101 Introduction And About The Author.mp4
Format : MPEG-4
Format profile : Base Media / Version 2
Codec ID : mp42
File size : 2.89 MiB
Duration : 1mn 33s
Overall bit rate mode : Variable
Overall bit rate : 259 Kbps
Encoded date : UTC 2015-03-02 19:23:12
Tagged date : UTC 2015-03-02 19:23:12
©TIM : 0
©TSC : 15
©TSZ : 1
Video
ID : 1
Format : AVC
Format/Info : Advanced Video Codec
Format profile : High@L4.1
Format settings, CABAC : Yes
Format settings, ReFrames : 3 frames
Format settings, GOP : M=3, N=75
Codec ID : avc1
Codec ID/Info : Advanced Video Coding
Duration : 1mn 33s
Bit rate mode : Variable
Bit rate : 127 Kbps
Maximum bit rate : 1 000 Kbps
Width : 1 280 pixels
Height : 720 pixels
Display aspect ratio : 16:9
Frame rate mode : Constant
Frame rate : 15.000 fps
Standard : NTSC
Color space : YUV
Chroma subsampling : 4:2:0
Bit depth : 8 bits
Scan type : Progressive
Bits/(Pixel*Frame) : 0.009
Stream size : 1.41 MiB (49%)
Language : English
Encoded date : UTC 2015-03-02 19:23:12
Tagged date : UTC 2015-03-02 19:23:12
Color primaries : BT.709
Transfer characteristics : BT.709
Matrix coefficients : BT.709
Audio
ID : 2
Format : AAC
Format/Info : Advanced Audio Codec
Format profile : LC
Codec ID : 40
Duration : 1mn 33s
Source duration : 1mn 33s
Bit rate mode : Variable
Bit rate : 125 Kbps
Maximum bit rate : 198 Kbps
Channel(s) : 2 channels
Channel positions : Front: L R
Sampling rate : 48.0 KHz
Compression mode : Lossy
Stream size : 1.40 MiB (48%)
Source stream size : 1.40 MiB (48%)
Language : English
Encoded date : UTC 2015-03-02 19:23:12
Tagged date : UTC 2015-03-02 19:23:12

_________________
Показать сообщения:    

Текущее время: Сегодня 07:37

Часовой пояс: GMT



Вы не можете начинать темы
Вы не можете отвечать на сообщения
Вы не можете редактировать свои сообщения
Вы не можете удалять свои сообщения
Вы не можете голосовать в опросах
Вы не можете прикреплять файлы к сообщениям
Вы не можете скачивать файлы
Наши партнеры: интернет магазин Ивановского трикотажа textilla.ru