Важное объявление!
У Нас Все раздачи мультитрекерные, при нуле пиров в релизах, можете смело вставать на закачку!
 
Автор Сообщение

HUNTER

Стаж:
4 года 4 месяца
Сообщений:
56749

Репутация: 101

[+] [-]
Вне форума [Профиль] [ЛС]

Verizon IndyCar Series 2015 / Этап 7 / Chevrolet Dual in Detroit / Гонка 1


Вид спорта: Автогонки / Индикар
Дата: 30 мая, 2015
Место проведения: The Raceway at Belle Isle Park - Detroit, MI
Трансляция: Viasat Sport
Язык комментария: Русский (Сергей Беднарук), Aнглийский (ABC)
Доп. информация: Без медийных пауз
Автор релиза: mex_mangust


Качество: HDWeb-Rip 1080i (OTT-сервис)
Формат: MKV
Видео: H.264 / 1920x1080 / 25 fps / 8560 kbps
Аудио: MP2 / 48 mhz / Stereo / 192 kbps

Media Info

General
Unique ID : 255209838560960382219777247436791325004 (0xBFFFA0844BCE830B9D81809E21D3A14C)
Complete name : G:\torrents\RUTRACKER.ORG-IndyCar-20150530-Dual-in-Detroit-Race1-RU-EN-1080i-mex.mkv
Format : Matroska
Format version : Version 4 / Version 2
File size : 6.15 GiB
Duration : 1h 36mn
Overall bit rate : 9 126 Kbps
Encoded date : UTC 2015-05-30 21:34:59
Writing application : mkvmerge v7.9.0 ('Birds') 64bit
Writing library : libebml v1.3.1 + libmatroska v1.4.2
DURATION : 01:36:30.696000000
NUMBER_OF_FRAMES : 241271
NUMBER_OF_BYTES : 138972096
_STATISTICS_WRITING_APP : mkvmerge v7.9.0 ('Birds') 64bit
_STATISTICS_WRITING_DATE_UTC : 2015-05-30 21:34:59
_STATISTICS_TAGS : BPS DURATION NUMBER_OF_FRAMES NUMBER_OF_BYTES
Video
ID : 1
Format : AVC
Format/Info : Advanced Video Codec
Format profile : Main@L4
Format settings, CABAC : Yes
Format settings, ReFrames : 4 frames
Codec ID : V_MPEG4/ISO/AVC
Duration : 1h 36mn
Bit rate : 8 560 Kbps
Width : 1 920 pixels
Height : 1 080 pixels
Display aspect ratio : 16:9
Frame rate mode : Constant
Frame rate : 25.000 fps
Standard : Component
Color space : YUV
Chroma subsampling : 4:2:0
Bit depth : 8 bits
Scan type : Interlaced
Scan order : Top Field First
Bits/(Pixel*Frame) : 0.165
Stream size : 5.77 GiB (94%)
Title : mm
Default : Yes
Forced : No
Color range : Limited
Color primaries : BT.709
Transfer characteristics : BT.709
Matrix coefficients : BT.709
Audio #1
ID : 2
Format : MPEG Audio
Format version : Version 1
Format profile : Layer 2
Codec ID : A_MPEG/L2
Codec ID/Hint : MP2
Duration : 1h 36mn
Bit rate mode : Constant
Bit rate : 192 Kbps
Channel(s) : 2 channels
Sampling rate : 48.0 KHz
Compression mode : Lossy
Delay relative to video : -1s 376ms
Stream size : 133 MiB (2%)
Title : Viasat Sport
Language : Russian
Default : Yes
Forced : No
Audio #2
ID : 3
Format : MPEG Audio
Format version : Version 1
Format profile : Layer 2
Codec ID : A_MPEG/L2
Codec ID/Hint : MP2
Duration : 1h 36mn
Bit rate mode : Constant
Bit rate : 192 Kbps
Channel(s) : 2 channels
Sampling rate : 48.0 KHz
Compression mode : Lossy
Delay relative to video : -1s 280ms
Stream size : 133 MiB (2%)
Title : ABC
Language : English
Default : No
Forced : No

Продолжительность

01:36:31

Скриншоты


_________________
Показать сообщения:    

Текущее время: Сегодня 00:09

Часовой пояс: GMT



Вы не можете начинать темы
Вы не можете отвечать на сообщения
Вы не можете редактировать свои сообщения
Вы не можете удалять свои сообщения
Вы не можете голосовать в опросах
Вы не можете прикреплять файлы к сообщениям
Вы не можете скачивать файлы