Важное объявление!
У Нас Все раздачи мультитрекерные, при нуле пиров в релизах, можете смело вставать на закачку!
 
Автор Сообщение

HUNTER

Стаж:
4 года 4 месяца
Сообщений:
56839

Репутация: 101

[+] [-]
Вне форума [Профиль] [ЛС]

Verizon IndyCar Series 2015 / Firestone 600 / Race


Вид спорта: Автогонки / Индикар
Дата: 6 июня, 2015
Место проведения: Texas Motor Speedway, Fort Worth, Texas
Трансляция: Viasat Sport
Язык комментария: Русский (Сергей Беднарук), Aнглийский (NBC SN)
Доп. информация: Без медийных пауз
Автор релиза: mex_mangust


Качество: HDWeb-Rip 1080i (OTT-сервис)
Формат: MKV
Видео: H.264 / 1920x1080 / 25 fps / 8306 kbps
Аудио: MP2 / 48 mhz / Stereo / 192 kbps

Media Info

General
Unique ID : 177822707390251728521074464033883770528 (0x85C7685EBB4A39DDB9592ED6BCB34EA0)
Complete name : G:\torrents\RUTRACKER.ORG-IndyCar-20150606-Firestone-600-RU-EN-1080i-mex.mkv
Format : Matroska
Format version : Version 4 / Version 2
File size : 9.04 GiB
Duration : 2h 25mn
Overall bit rate : 8 866 Kbps
Encoded date : UTC 2015-06-08 14:21:26
Writing application : mkvmerge v7.9.0 ('Birds') 64bit
Writing library : libebml v1.3.1 + libmatroska v1.4.2
DURATION : 02:25:53.376000000
NUMBER_OF_FRAMES : 364490
NUMBER_OF_BYTES : 209946240
_STATISTICS_WRITING_APP : mkvmerge v7.9.0 ('Birds') 64bit
_STATISTICS_WRITING_DATE_UTC : 2015-06-08 14:21:26
_STATISTICS_TAGS : BPS DURATION NUMBER_OF_FRAMES NUMBER_OF_BYTES
Video
ID : 1
Format : AVC
Format/Info : Advanced Video Codec
Format profile : Main@L4
Format settings, CABAC : Yes
Format settings, ReFrames : 4 frames
Format settings, GOP : M=4, N=28
Codec ID : V_MPEG4/ISO/AVC
Duration : 2h 25mn
Bit rate : 8 306 Kbps
Width : 1 920 pixels
Height : 1 080 pixels
Display aspect ratio : 16:9
Frame rate mode : Constant
Frame rate : 25.000 fps
Standard : Component
Color space : YUV
Chroma subsampling : 4:2:0
Bit depth : 8 bits
Scan type : Interlaced
Scan order : Top Field First
Bits/(Pixel*Frame) : 0.160
Stream size : 8.46 GiB (94%)
Title : mm
Default : Yes
Forced : No
Color range : Limited
Color primaries : BT.709
Transfer characteristics : BT.709
Matrix coefficients : BT.709
Audio #1
ID : 2
Format : MPEG Audio
Format version : Version 1
Format profile : Layer 2
Codec ID : A_MPEG/L2
Codec ID/Hint : MP2
Duration : 2h 25mn
Bit rate mode : Constant
Bit rate : 192 Kbps
Channel(s) : 2 channels
Sampling rate : 48.0 KHz
Compression mode : Lossy
Delay relative to video : 128ms
Stream size : 200 MiB (2%)
Title : Viasat Sport
Language : Russian
Default : Yes
Forced : No
Audio #2
ID : 3
Format : MPEG Audio
Format version : Version 1
Format profile : Layer 2
Codec ID : A_MPEG/L2
Codec ID/Hint : MP2
Duration : 2h 25mn
Bit rate mode : Constant
Bit rate : 192 Kbps
Channel(s) : 2 channels
Sampling rate : 48.0 KHz
Compression mode : Lossy
Delay relative to video : 128ms
Stream size : 200 MiB (2%)
Title : NBC SN
Language : English
Default : No
Forced : No

Продолжительность

02:25:53

Скриншоты


_________________
Показать сообщения:    

Текущее время: Сегодня 02:03

Часовой пояс: GMT



Вы не можете начинать темы
Вы не можете отвечать на сообщения
Вы не можете редактировать свои сообщения
Вы не можете удалять свои сообщения
Вы не можете голосовать в опросах
Вы не можете прикреплять файлы к сообщениям
Вы не можете скачивать файлы