Важное объявление!
У Нас Все раздачи мультитрекерные, при нуле пиров в релизах, можете смело вставать на закачку!
Статистика раздачи
Размер:     |    Зарегистрирован:     |    Скачан:     |   
Нет
 
     
 
 
Автор Сообщение

HUNTER

Стаж:
5 лет
Сообщений:
68390

Репутация: 101

[+] [-]
Вне форума [Профиль] [ЛС]

IndyCar Series 2015 / 4-й этап / Honda Indy Grand Prix of Alabama / Гонка
Вид спорта: Автогонки
Дата/Год выпуска: 26.04.15
Язык комментариев: русский, английский
Автор записи: SashaR.
Качество: DVB-S2 Remux
Формат видео: TS

Media Info

H:\Раздачи\IndyCar Series 2015. 4-й этап. Honda Indy Grand Prix of Alabama\Гонка (Viasat Sport HD).ts
General #6
ID : 6 (0x6)
Complete name : H:\Раздачи\IndyCar Series 2015. 4-й этап. Honda Indy Grand Prix of Alabama\Гонка (Viasat Sport HD).ts
Format : MPEG-TS
File size : 7.85 GiB
Duration : 2h 3mn
Overall bit rate mode : Variable
Overall bit rate : 9 108 Kbps
Video #306
ID : 306 (0x132)
Menu ID : 17106 (0x42D2)
Format : AVC
Format/Info : Advanced Video Codec
Format profile : Main@L4.0
Format settings, CABAC : Yes
Format settings, ReFrames : 4 frames
Codec ID : 27
Duration : 2h 3mn
Bit rate : 8 464 Kbps
Width : 1 920 pixels
Height : 1 080 pixels
Display aspect ratio : 16:9
Frame rate : 25.000 fps
Standard : Component
Color space : YUV
Chroma subsampling : 4:2:0
Bit depth : 8 bits
Scan type : Interlaced
Scan order : Top Field First
Bits/(Pixel*Frame) : 0.163
Stream size : 7.29 GiB (93%)
Color primaries : BT.709
Transfer characteristics : BT.709
Matrix coefficients : BT.709
Audio #406
ID : 406 (0x196)
Menu ID : 17106 (0x42D2)
Format : MPEG Audio
Format version : Version 1
Format profile : Layer 2
Codec ID : 4
Duration : 2h 3mn
Bit rate mode : Constant
Bit rate : 192 Kbps
Channel count : 2 channels
Sampling rate : 48.0 KHz
Compression mode : Lossy
Delay relative to video : 35ms
Stream size : 169 MiB (2%)
Language : Russian
Language, more info : Clean effects
H:\Раздачи\IndyCar Series 2015. 4-й этап. Honda Indy Grand Prix of Alabama\Гонка (SPORT 1 US HD).ts
General #6
ID : 6 (0x6)
Complete name : H:\Раздачи\IndyCar Series 2015. 4-й этап. Honda Indy Grand Prix of Alabama\Гонка (SPORT 1 US HD).ts
Format : MPEG-TS
File size : 9.94 GiB
Duration : 2h 22mn
Overall bit rate mode : Variable
Overall bit rate : 9 992 Kbps
Video #511
ID : 511 (0x1FF)
Menu ID : 119 (0x77)
Format : AVC
Format/Info : Advanced Video Codec
Format profile : High@L4.0
Format settings, CABAC : Yes
Format settings, ReFrames : 3 frames
Codec ID : 27
Duration : 2h 22mn
Bit rate : 9 110 Kbps
Width : 1 920 pixels
Height : 1 080 pixels
Display aspect ratio : 16:9
Frame rate : 25.000 fps
Standard : Component
Color space : YUV
Chroma subsampling : 4:2:0
Bit depth : 8 bits
Scan type : Interlaced
Scan order : Top Field First
Bits/(Pixel*Frame) : 0.176
Stream size : 9.07 GiB (91%)
Color primaries : BT.709
Transfer characteristics : BT.709
Matrix coefficients : BT.709
Audio #515
ID : 515 (0x203)
Menu ID : 119 (0x77)
Format : AC-3
Format/Info : Audio Coding 3
Mode extension : CM (complete main)
Format settings, Endianness : Big
Codec ID : 6
Duration : 2h 22mn
Bit rate mode : Constant
Bit rate : 384 Kbps
Channel count : 2 channels
Channel positions : Front: L R
Sampling rate : 48.0 KHz
Bit depth : 16 bits
Compression mode : Lossy
Delay relative to video : 32ms
Stream size : 391 MiB (4%)
Language : German
Language, more info : Clean effects

Продолжительность

Гонка (Viasat Sport HD) - 02:03:22
Гонка (SPORT 1 US HD) - 02:22:29

Скриншоты



_________________
Показать сообщения:    

Текущее время: Сегодня 15:22

Часовой пояс: GMT



Вы не можете начинать темы
Вы не можете отвечать на сообщения
Вы не можете редактировать свои сообщения
Вы не можете удалять свои сообщения
Вы не можете голосовать в опросах
Вы не можете прикреплять файлы к сообщениям
Вы не можете скачивать файлы