IndyCar Series 2015 / Этап 7 / Dual in Detroit / Гонка 2 [31.05.2015, Автогонки, HDWeb-Rip/1080i, MKV/H.264, RU-EN / Viasat Sport] :: Ивановский Торрент трекер
Важное объявление!
У Нас Все раздачи мультитрекерные, при нуле пиров в релизах, можете смело вставать на закачку!
Статистика раздачи
Размер:     |    Зарегистрирован:     |    Скачан:     |   
Нет
 
     
 
 
Автор Сообщение

HUNTER

Стаж:
4 года 11 месяцев
Сообщений:
66066

Репутация: 101

[+] [-]
Вне форума [Профиль] [ЛС]

Verizon IndyCar Series 2015 / Этап 7 / Chevrolet Dual in Detroit / Гонка 2


Вид спорта: Автогонки / Индикар
Дата: 31 мая, 2015
Место проведения: The Raceway at Belle Isle Park - Detroit, MI
Трансляция: Viasat Sport HD / ABC
Язык комментария: Русский (Сергей Беднарук), Aнглийский
Доп. информация: Без медийных пауз
Автор релиза: mex_mangust


Качество: HDWeb-Rip 1080i (OTT-сервис)
Формат: MKV
Видео: H.264 / 1920x1080 / 25 fps / 8499 kbps
Аудио: MP2 / 48 mhz / Stereo / 192 kbps

Media Info

General
Unique ID : 222364063228195417664185067002239231909 (0xA749C2C34F1EDCB2A86FACBD111DA7A5)
Complete name : G:\torrents\RUTRACKER.ORG-IndyCar-20150531-Dual-in-Detroit-Race2-RU-EN-1080i-mex.mkv
Format : Matroska
Format version : Version 4 / Version 2
File size : 9.78 GiB
Duration : 2h 34mn
Overall bit rate : 9 063 Kbps
Encoded date : UTC 2015-05-31 22:06:48
Writing application : mkvmerge v7.9.0 ('Birds') 64bit
Writing library : libebml v1.3.1 + libmatroska v1.4.2
DURATION : 02:34:25.848000000
NUMBER_OF_FRAMES : 386034
NUMBER_OF_BYTES : 222355584
_STATISTICS_WRITING_APP : mkvmerge v7.9.0 ('Birds') 64bit
_STATISTICS_WRITING_DATE_UTC : 2015-05-31 22:06:48
_STATISTICS_TAGS : BPS DURATION NUMBER_OF_FRAMES NUMBER_OF_BYTES
Video
ID : 1
Format : AVC
Format/Info : Advanced Video Codec
Format profile : Main@L4
Format settings, CABAC : Yes
Format settings, ReFrames : 4 frames
Format settings, GOP : M=4, N=28
Codec ID : V_MPEG4/ISO/AVC
Duration : 2h 34mn
Bit rate : 8 499 Kbps
Width : 1 920 pixels
Height : 1 080 pixels
Display aspect ratio : 16:9
Frame rate mode : Constant
Frame rate : 25.000 fps
Standard : Component
Color space : YUV
Chroma subsampling : 4:2:0
Bit depth : 8 bits
Scan type : Interlaced
Scan order : Top Field First
Bits/(Pixel*Frame) : 0.164
Stream size : 9.17 GiB (94%)
Title : mm
Default : Yes
Forced : No
Color range : Limited
Color primaries : BT.709
Transfer characteristics : BT.709
Matrix coefficients : BT.709
Audio #1
ID : 2
Format : MPEG Audio
Format version : Version 1
Format profile : Layer 2
Codec ID : A_MPEG/L2
Codec ID/Hint : MP2
Duration : 2h 34mn
Bit rate mode : Constant
Bit rate : 192 Kbps
Channel(s) : 2 channels
Sampling rate : 48.0 KHz
Compression mode : Lossy
Delay relative to video : 128ms
Stream size : 212 MiB (2%)
Title : Viasat Sport
Language : Russian
Default : Yes
Forced : No
Audio #2
ID : 3
Format : MPEG Audio
Format version : Version 1
Format profile : Layer 2
Codec ID : A_MPEG/L2
Codec ID/Hint : MP2
Duration : 2h 34mn
Bit rate mode : Constant
Bit rate : 192 Kbps
Channel(s) : 2 channels
Sampling rate : 48.0 KHz
Compression mode : Lossy
Delay relative to video : 128ms
Stream size : 212 MiB (2%)
Title : ABC
Language : English
Default : No
Forced : No

Продолжительность

02:34:25

Скриншоты


_________________
Показать сообщения:    

Текущее время: Сегодня 12:20

Часовой пояс: GMT



Вы не можете начинать темы
Вы не можете отвечать на сообщения
Вы не можете редактировать свои сообщения
Вы не можете удалять свои сообщения
Вы не можете голосовать в опросах
Вы не можете прикреплять файлы к сообщениям
Вы не можете скачивать файлы