Важное объявление!
У Нас Все раздачи мультитрекерные, при нуле пиров в релизах, можете смело вставать на закачку!
Статистика раздачи
Размер:     |    Зарегистрирован:     |    Скачан:     |   
Нет
 
     
 
 
Автор Сообщение

HUNTER

Стаж:
5 лет
Сообщений:
67935

Репутация: 101

[+] [-]
Вне форума [Профиль] [ЛС]

IndyCar 2015 / ABC Supply 500 / Pocono Raceway / Этап 15 / Гонка / Viasat Sport HD
Вид спорта: Автогонки
Дата/Год выпуска: 23.08.15
Язык комментариев: русский (Сергей Беднарук и Михаил Алёшин)
Автор записи: SashaR.
Качество: DVB-S2 Remux
Формат видео: TS
Видео: AVC 1920x1080, 16:9, 8 638 Kbps, 25 fps
Аудио: MP2, 192 Kbps, 48.0 kHz, 2 channels

Media Info

H:\Раздачи\IndyCar 2015. ABC Supply 500. Pocono Raceway. Этап 15. Гонка (Viasat Sport HD).ts
General #6
ID : 6 (0x6)
Complete name : H:\Раздачи\IndyCar 2015. ABC Supply 500. Pocono Raceway. Этап 15. Гонка (Viasat Sport HD).ts
Format : MPEG-TS
File size : 15.4 GiB
Duration : 3h 51mn
Overall bit rate mode : Variable
Overall bit rate : 9 495 Kbps
Video #306
ID : 306 (0x132)
Menu ID : 17106 (0x42D2)
Format : AVC
Format/Info : Advanced Video Codec
Format profile : Main@L4.0
Format settings, CABAC : Yes
Format settings, ReFrames : 4 frames
Codec ID : 27
Duration : 3h 51mn
Bit rate : 8 638 Kbps
Width : 1 920 pixels
Height : 1 080 pixels
Display aspect ratio : 16:9
Frame rate : 25.000 fps
Standard : Component
Color space : YUV
Chroma subsampling : 4:2:0
Bit depth : 8 bits
Scan type : Interlaced
Scan order : Top Field First
Bits/(Pixel*Frame) : 0.167
Stream size : 14.0 GiB (91%)
Color primaries : BT.709
Transfer characteristics : BT.709
Matrix coefficients : BT.709
Audio #406
ID : 406 (0x196)
Menu ID : 17106 (0x42D2)
Format : MPEG Audio
Format version : Version 1
Format profile : Layer 2
Codec ID : 4
Duration : 3h 51mn
Bit rate mode : Constant
Bit rate : 192 Kbps
Channel count : 2 channels
Sampling rate : 48.0 KHz
Compression mode : Lossy
Delay relative to video : 60ms
Stream size : 318 MiB (2%)
Language : Russian
Language, more info : Clean effects
Audio #416
ID : 416 (0x1A0)
Menu ID : 17106 (0x42D2)
Format : MPEG Audio
Format version : Version 1
Format profile : Layer 2
Codec ID : 4
Duration : 3h 51mn
Bit rate mode : Constant
Bit rate : 192 Kbps
Channel count : 2 channels
Sampling rate : 48.0 KHz
Compression mode : Lossy
Delay relative to video : 36ms
Stream size : 318 MiB (2%)
Language : English
Language, more info : Clean effects

Продолжительность

03:51:36

Скриншоты


_________________
Показать сообщения:    

Текущее время: Сегодня 02:45

Часовой пояс: GMT



Вы не можете начинать темы
Вы не можете отвечать на сообщения
Вы не можете редактировать свои сообщения
Вы не можете удалять свои сообщения
Вы не можете голосовать в опросах
Вы не можете прикреплять файлы к сообщениям
Вы не можете скачивать файлы