Важное объявление!
У Нас Все раздачи мультитрекерные, при нуле пиров в релизах, можете смело вставать на закачку!
Статистика раздачи
Размер:     |    Зарегистрирован:     |    Скачан:     |   
Нет
 
     
 
 
Автор Сообщение

HUNTER

Стаж:
5 лет
Сообщений:
68415

Репутация: 101

[+] [-]
Вне форума [Профиль] [ЛС]

Indycar 2015. Этап 06. Indianapolis 500 (Indianapolis, IN). Viasat Sport HD / Sport 1 US HD
Вид спорта: Автогонки
Дата/Год выпуска: 18.05.15
Язык комментариев: русский, английский
Автор записи: SashaR.
Качество: DVB-S2 Remux
Формат видео: TS

Media Info

H:\Раздачи\Indycar 2015. Этап 06. Indianapolis 500\Day 2 (Viasat Sport HD).ts
General #6
ID : 6 (0x6)
Complete name : H:\Раздачи\Indycar 2015. Этап 06. Indianapolis 500\Day 2 (Viasat Sport HD).ts
Format : MPEG-TS
File size : 8.33 GiB
Duration : 2h 10mn
Overall bit rate mode : Variable
Overall bit rate : 9 141 Kbps
Video #306
ID : 306 (0x132)
Menu ID : 17106 (0x42D2)
Format : AVC
Format/Info : Advanced Video Codec
Format profile : Main@L4.0
Format settings, CABAC : Yes
Format settings, ReFrames : 4 frames
Codec ID : 27
Duration : 2h 10mn
Bit rate : 8 496 Kbps
Width : 1 920 pixels
Height : 1 080 pixels
Display aspect ratio : 16:9
Frame rate : 25.000 fps
Standard : Component
Color space : YUV
Chroma subsampling : 4:2:0
Bit depth : 8 bits
Scan type : Interlaced
Scan order : Top Field First
Bits/(Pixel*Frame) : 0.164
Stream size : 7.74 GiB (93%)
Color primaries : BT.709
Transfer characteristics : BT.709
Matrix coefficients : BT.709
Audio #406
ID : 406 (0x196)
Menu ID : 17106 (0x42D2)
Format : MPEG Audio
Format version : Version 1
Format profile : Layer 2
Codec ID : 4
Duration : 2h 10mn
Bit rate mode : Constant
Bit rate : 192 Kbps
Channel count : 2 channels
Sampling rate : 48.0 KHz
Compression mode : Lossy
Delay relative to video : 68ms
Stream size : 179 MiB (2%)
Language : Russian
Language, more info : Clean effects
H:\Раздачи\Indycar 2015. Этап 06. Indianapolis 500\Day 2 (Sport 1 US HD).ts
General #6
ID : 6 (0x6)
Complete name : H:\Раздачи\Indycar 2015. Этап 06. Indianapolis 500\Day 2 (Sport 1 US HD).ts
Format : MPEG-TS
File size : 8.76 GiB
Duration : 2h 0mn
Overall bit rate mode : Variable
Overall bit rate : 10.4 Mbps
Video #511
ID : 511 (0x1FF)
Menu ID : 119 (0x77)
Format : AVC
Format/Info : Advanced Video Codec
Format profile : High@L4.0
Format settings, CABAC : Yes
Format settings, ReFrames : 3 frames
Codec ID : 27
Duration : 2h 0mn
Bit rate : 9 524 Kbps
Width : 1 920 pixels
Height : 1 080 pixels
Display aspect ratio : 16:9
Frame rate : 25.000 fps
Standard : Component
Color space : YUV
Chroma subsampling : 4:2:0
Bit depth : 8 bits
Scan type : Interlaced
Scan order : Top Field First
Bits/(Pixel*Frame) : 0.184
Stream size : 8.00 GiB (91%)
Color primaries : BT.709
Transfer characteristics : BT.709
Matrix coefficients : BT.709
Audio #515
ID : 515 (0x203)
Menu ID : 119 (0x77)
Format : AC-3
Format/Info : Audio Coding 3
Mode extension : CM (complete main)
Format settings, Endianness : Big
Codec ID : 6
Duration : 2h 0mn
Bit rate mode : Constant
Bit rate : 384 Kbps
Channel count : 2 channels
Channel positions : Front: L R
Sampling rate : 48.0 KHz
Bit depth : 16 bits
Compression mode : Lossy
Delay relative to video : 32ms
Stream size : 330 MiB (4%)
Language : German
Language, more info : Clean effects

Продолжительность

Day 2 (Sport 1 US HD) - 02:00:16
Day 2 (Viasat Sport HD) - 02:10:50

Скриншоты



_________________
Показать сообщения:    

Текущее время: Сегодня 07:09

Часовой пояс: GMT



Вы не можете начинать темы
Вы не можете отвечать на сообщения
Вы не можете редактировать свои сообщения
Вы не можете удалять свои сообщения
Вы не можете голосовать в опросах
Вы не можете прикреплять файлы к сообщениям
Вы не можете скачивать файлы