Важное объявление!
У Нас Все раздачи мультитрекерные, при нуле пиров в релизах, можете смело вставать на закачку!
 
Автор Сообщение

HUNTER

Стаж:
4 года 4 месяца
Сообщений:
56765

Репутация: 101

[+] [-]
Вне форума [Профиль] [ЛС]

Indy Lights Series 2016. Этап 15. Mid-Ohio. 2 Гонка. Viasat Sport HD/NBCSN
Вид спорта: Автоспорт
Дата/Год выпуска: 31.07.2016
Язык комментариев: Русский (Сергей Бендарук), Английский (NBCSN)
Описание: 15 этап гоночной серии Indy Lights на улицах Торонто.
Автор рипа/записи: Ales
Качество: HDTV
Формат видео: TS
Видео: H264, 1920x1080i, 25 кадр/c, 8 980 Kbps
Аудио: MP2 2.0, 48.0 KHz, 192 kb/s

Продолжительность

1:11:21

Скриншоты

MediaInfo

General
ID : 17 (0x11)
Complete name : K:\IndyLight\INDYLIGHTS_R15_MID_OHIO_RACE_2_VIASAT_SPORT_HD.ts
Format : MPEG-TS
File size : 4.81 GiB
Duration : 1h 11mn
Overall bit rate mode : Variable
Overall bit rate : 9 646 Kbps
Video
ID : 306 (0x132)
Menu ID : 17106 (0x42D2)
Format : AVC
Format/Info : Advanced Video Codec
Format profile : High@L4
Format settings, CABAC : Yes
Format settings, ReFrames : 4 frames
Codec ID : 27
Duration : 1h 11mn
Bit rate : 8 781 Kbps
Width : 1 920 pixels
Height : 1 080 pixels
Display aspect ratio : 16:9
Frame rate : 25.000 fps
Standard : Component
Color space : YUV
Chroma subsampling : 4:2:0
Bit depth : 8 bits
Scan type : Interlaced
Scan type, store method : Separated fields
Scan order : Top Field First
Bits/(Pixel*Frame) : 0.169
Stream size : 4.38 GiB (91%)
Color range : Limited
Color primaries : BT.709
Transfer characteristics : BT.709
Matrix coefficients : BT.709
Audio #1
ID : 406 (0x196)
Menu ID : 17106 (0x42D2)
Format : MPEG Audio
Format version : Version 1
Format profile : Layer 2
Codec ID : 4
Duration : 1h 11mn
Bit rate mode : Constant
Bit rate : 192 Kbps
Channel(s) : 2 channels
Sampling rate : 48.0 KHz
Compression mode : Lossy
Delay relative to video : -12ms
Stream size : 98.0 MiB (2%)
Language : Russian
Language, more info : Clean effects
Audio #2
ID : 416 (0x1A0)
Menu ID : 17106 (0x42D2)
Format : MPEG Audio
Format version : Version 1
Format profile : Layer 2
Codec ID : 4
Duration : 1h 11mn
Bit rate mode : Constant
Bit rate : 192 Kbps
Channel(s) : 2 channels
Sampling rate : 48.0 KHz
Compression mode : Lossy
Delay relative to video : -12ms
Stream size : 98.0 MiB (2%)
Language : English
Language, more info : Clean effects[/pre]

_________________
Показать сообщения:    

Текущее время: Сегодня 04:18

Часовой пояс: GMT



Вы не можете начинать темы
Вы не можете отвечать на сообщения
Вы не можете редактировать свои сообщения
Вы не можете удалять свои сообщения
Вы не можете голосовать в опросах
Вы не можете прикреплять файлы к сообщениям
Вы не можете скачивать файлы