Ивановский Торрент трекер
Яндекс.Погода
 

[Цитировать]
HUNTER


Букашки!

Bugs!

- -
  • Год выпуска: 2003
  • Страна: Великобритания (Terminix)
  • Жанр: Документальный
  • Продолжительность: 00:40:02
  • Перевод: Профессиональный (одноголосый закадровый)
  • Субтитры: Отсутствуют
  • Режиссер: Майк Сли-
  • Рассказчик на английском: Джуди Денч
  • Описание: Фильм, рассказывающий о жизни насекомых в тропических лесах. Зритель следит за судьбой бабочки и богомола, живущих на одной поляне, с момента их рождения. Не остаются без внимания и другие насекомые, жизнь которых, как выясняется, полна приключений и трудностей…-|Семпл|-
  • Качество: BDRip 1080p
  • Формат 3D: Half OverUnder / Вертикальная анаморфная стереопара
  • Порядок ракурсов:: Левый ракурс первый
  • Видео кодек: AVC
  • Аудио кодек: AC3
  • Видео: AVC, 1 920x1 080 (16:9), 23.976 кадр/сек, 14.3 Mbps, 0.287 bit/pixel
  • Аудио: Русский, 48 kHz, AC3 Dolby Digital, 3/2 (L,C,R,l,r) + LFE ch, ~640.00 kbps avg
  • Аудио: Английский, 48 kHz, AC3 Dolby Digital, 3/2 (L,C,R,l,r) + LFE ch, ~640.00 kbps avg-
  • Релиз группы: -

    Рейтинг

    Рейтинг:
    -

    MediaInfo

    General
    UniqueID : 173186434432082665044021212023508951221 (0x824A7E77026CE7078CB72F32BB07E0B5)
    Complete name : F:\Downloads\Bugs3D.halfOU.AC3.ash61.mkv
    Format : Matroska
    File size : 4.37 GiB
    Duration : 40mn 3s
    Overall bit rate : 15.6 Mbps
    Movie name : Bugs (ash61)
    Encoded date : UTC 2011-09-14 08:51:33
    Writing application : mkvmerge v3.4.0 ('Rapunzel') сборка от May 15 2010 09:38:20
    Writing library : libebml v0.8.0 + libmatroska v0.9.0
    Video
    ID : 1
    Format : AVC
    Format/Info : Advanced Video Codec
    Format profile : High@L4.1
    Format settings, CABAC : Yes
    Format settings, ReFrames : 4 frames
    Format settings, GOP : M=6, N=19
    Codec ID : V_MPEG4/ISO/AVC
    Duration : 40mn 3s
    Bit rate : 14.3 Mbps
    Width : 1 920 pixels
    Height : 1 080 pixels
    Display aspect ratio : 16:9
    Frame rate : 23.976 fps
    Color space : YUV
    Chroma subsampling : 4:2:0
    Bit depth : 8 bits
    Scan type : Progressive
    Bits/(Pixel*Frame) : 0.287
    Stream size : 4.00 GiB (91%)
    Title : Rip by ash61
    Writing library : x264 core 113 r1884 7313bb5
    Encoding settings : cabac=1 / ref=4 / deblock=1:-3:-3 / analyse=0x3:0x113 / me=umh / subme=9 / psy=1 / psy_rd=1.00:0.15 / mixed_ref=1 / me_range=16 / chroma_me=1 / trellis=2 / 8x8dct=1 / cqm=0 / deadzone=21,11 / fast_pskip=1 / chroma_qp_offset=-3 / threads=3 / sliced_threads=0 / nr=0 / decimate=1 / interlaced=0 / constrained_intra=0 / bframes=6 / b_pyramid=2 / b_adapt=2 / b_bias=0 / direct=3 / weightb=1 / open_gop=0 / weightp=2 / keyint=250 / keyint_min=23 / scenecut=40 / intra_refresh=0 / rc_lookahead=60 / rc=crf / mbtree=1 / crf=18.0 / qcomp=0.60 / qpmin=10 / qpmax=51 / qpstep=4 / ip_ratio=1.40 / aq=1:1.00
    Audio #1
    ID : 2
    Format : AC-3
    Format/Info : Audio Coding 3
    Mode extension : CM (complete main)
    Codec ID : A_AC3
    Duration : 40mn 3s
    Bit rate mode : Constant
    Bit rate : 384 Kbps
    Channel(s) : 6 channels
    Channel positions : Front: L C R, Side: L R, LFE
    Sampling rate : 48.0 KHz
    Bit depth : 16 bits
    Compression mode : Lossy
    Stream size : 110 MiB (2%)
    Language : Russian
    Audio #2
    ID : 3
    Format : AC-3
    Format/Info : Audio Coding 3
    Mode extension : CM (complete main)
    Codec ID : A_AC3
    Duration : 40mn 3s
    Bit rate mode : Constant
    Bit rate : 640 Kbps
    Channel(s) : 6 channels
    Channel positions : Front: L C R, Side: L R, LFE
    Sampling rate : 48.0 KHz
    Bit depth : 16 bits
    Compression mode : Lossy
    Stream size : 183 MiB (4%)
    Language : English
    Menu
    00:00:00.000 : :01
    00:03:08.397 : :02
    00:06:37.355 : :03
    00:08:50.613 : :04
    00:11:59.135 : :05
    00:14:47.428 : :06
    00:16:10.636 : :07
    00:18:05.960 : :08
    00:19:51.065 : :09
    00:22:44.989 : :10
    00:25:05.754 : :11
    00:28:01.138 : :12
    00:29:15.587 : :13
    00:30:55.687 : :14
    00:33:33.970 : :15
    00:38:09.245 : :16
    -

    Скриншоты

Показать сообщения:    

Текущее время: 22-Сен 16:11

Часовой пояс: UTC - 1


Вы не можете начинать темы
Вы не можете отвечать на сообщения
Вы не можете редактировать свои сообщения
Вы не можете удалять свои сообщения
Вы не можете голосовать в опросах
Вы не можете прикреплять файлы к сообщениям
Вы не можете скачивать файлы

!ВНИМАНИЕ!
Сайт не предоставляет электронные версии произведений, а занимается лишь коллекционированием и каталогизацией ссылок, присылаемых и публикуемых на форуме нашими читателями. Если вы являетесь правообладателем какого-либо представленного материала и не желаете, чтобы ссылка на него находилась в нашем каталоге, свяжитесь с нами, и мы незамедлительно удалим ее. Файлы для обмена на трекере предоставлены пользователями сайта, и администрация не несет ответственности за их содержание. Просьба не заливать файлы, защищенные авторскими правами, а также файлы нелегального содержания!