Ивановский Торрент трекер
Яндекс.Погода
 

[Quote]
HUNTER

Игрок / The Gambler Страна: США
Студия: Paramount Pictures, Winkler Films
Жанр: триллер, драма, криминал
Год выпуска: 2014
Продолжительность: 01:50:58
Перевод: Профессиональный (дублированный) Blu-ray CEE
Cубтитры: русские, украинские, английские
Оригинальная аудиодорожка: английский
Режиссер: Руперт Уайатт / Rupert Wyatt
В ролях: Марк Уолберг, Джон Гудман, Бри Ларсон, Майкл Кеннет Уильямс, Джессика Лэнг, Гриффин Кливлэнд, Омар Лейва, Энтони Келли, Стив Парк, Эмори Коэн
Описание: Джим Беннетт — рисковый парень. Днем он — гениальный писатель и отличный преподаватель, ночью — заядлый игрок. Он глубоко увяз в мире, где закон — пустой звук, и однажды ставит на кон все, включая собственную жизнь. Те, кому он должен, опасны, а помочь ему может только тот, кто еще опаснее.
Достоин ли второго шанса человек, проигравший самого себя? А, если да, то — во сколько это ему обойдется?


Тип релиза: BDRip 720p [DON]
Контейнер: MKV
Видео: AVC, 1280x534, 6000Kbps, 23.976 fps
Аудио 1: Russian: 48 kHz, AC3, 3/2 (L,C,R,l,r) + LFE ch, ~640.00 kbps avg |Blu-ray CEE|
Аудио 2: English: 48 kHz, AC3, 3/2 (L,C,R,l,r) + LFE ch, ~640.00 kbps |Original|
Чаптеры: есть

x264 log

x264 [info]: frame I:1510 Avg QP:10.29 size:133299
x264 [info]: frame P:34220 Avg QP:12.64 size: 55427
x264 [info]: frame B:123918 Avg QP:13.48 size: 23344
x264 [info]: consecutive B-frames: 2.6% 2.6% 8.9% 15.8% 16.2% 34.3% 10.0% 4.5% 5.0%
encoded 159648 frames, 11.04 fps, 5996.03 kb/s

MediaInfo

General
Unique ID : 197562246181766713450989505009668518192 (0x94A11AC5C461D7C9BAAD4DEADC2AF130)
Complete name : D:The.Gambler.2014.720p.BluRay.DD5.1.x264-Talian-.mkv
Format : Matroska
Format version : Version 2
File size : 5.64 GiB
Duration : 1h 50mn
Overall bit rate : 7 279 Kbps
Movie name : The Gambler -Talian-
Encoded date : UTC 2015-04-01 08:38:32
Writing application : mkvmerge v5.7.0 ('The Whirlwind') built on Jul 8 2012 20:08:51
Writing library : libebml v1.2.3 + libmatroska v1.3.0
Video
ID : 1
Format : AVC
Format/Info : Advanced Video Codec
Format profile : [email protected]
Format settings, CABAC : Yes
Format settings, ReFrames : 12 frames
Codec ID : V_MPEG4/ISO/AVC
Duration : 1h 50mn
Bit rate : 6 000 Kbps
Width : 1 280 pixels
Height : 534 pixels
Display aspect ratio : 2.40:1
Frame rate : 23.976 fps
Color space : YUV
Chroma subsampling : 4:2:0
Bit depth : 8 bits
Scan type : Progressive
Bits/(Pixel*Frame) : 0.366
Stream size : 4.54 GiB (80%)
Title : DON
Writing library : x264 core 140 r2377 1ca7bb9
Encoding settings : cabac=1 / ref=12 / deblock=1:-3:-3 / analyse=0x3:0x133 / me=umh / subme=10 / psy=1 / psy_rd=0.95:0.00 / mixed_ref=1 / me_range=48 / chroma_me=1 / trellis=2 / 8x8dct=1 / cqm=0 / deadzone=21,11 / fast_pskip=0 / chroma_qp_offset=-2 / threads=12 / lookahead_threads=2 / sliced_threads=0 / nr=0 / decimate=0 / interlaced=0 / bluray_compat=0 / constrained_intra=0 / bframes=8 / b_pyramid=2 / b_adapt=2 / b_bias=0 / direct=3 / weightb=1 / open_gop=0 / weightp=2 / keyint=240 / keyint_min=23 / scenecut=40 / intra_refresh=0 / rc_lookahead=60 / rc=2pass / mbtree=0 / bitrate=6000 / ratetol=1.0 / qcomp=0.65 / qpmin=0 / qpmax=69 / qpstep=4 / cplxblur=20.0 / qblur=0.5 / vbv_maxrate=62500 / vbv_bufsize=78125 / nal_hrd=none / filler=0 / ip_ratio=1.30 / pb_ratio=1.20 / aq=1:0.80
Language : English
Default : Yes
Forced : No
Audio #1
ID : 2
Format : AC-3
Format/Info : Audio Coding 3
Mode extension : CM (complete main)
Format settings, Endianness : Big
Codec ID : A_AC3
Duration : 1h 50mn
Bit rate mode : Constant
Bit rate : 640 Kbps
Channel(s) : 6 channels
Channel positions : Front: L C R, Side: L R, LFE
Sampling rate : 48.0 KHz
Bit depth : 16 bits
Compression mode : Lossy
Stream size : 508 MiB (9%)
Title : DUB-Blu-ray CEE
Language : Russian
Default : Yes
Forced : No
Audio #2
ID : 3
Format : AC-3
Format/Info : Audio Coding 3
Mode extension : CM (complete main)
Format settings, Endianness : Big
Codec ID : A_AC3
Duration : 1h 50mn
Bit rate mode : Constant
Bit rate : 640 Kbps
Channel(s) : 6 channels
Channel positions : Front: L C R, Side: L R, LFE
Sampling rate : 48.0 KHz
Bit depth : 16 bits
Compression mode : Lossy
Stream size : 508 MiB (9%)
Title : Original
Language : English
Default : No
Forced : No
Text #1
ID : 4
Format : UTF-8
Codec ID : S_TEXT/UTF8
Codec ID/Info : UTF-8 Plain Text
Title : Sub
Language : Russian
Default : No
Forced : No
Text #2
ID : 5
Format : UTF-8
Codec ID : S_TEXT/UTF8
Codec ID/Info : UTF-8 Plain Text
Title : Sub
Language : Ukrainian
Default : No
Forced : No
Text #3
ID : 6
Format : UTF-8
Codec ID : S_TEXT/UTF8
Codec ID/Info : UTF-8 Plain Text
Title : Sub
Language : English
Default : No
Forced : No
Menu
00:00:00.000 : en:00:00:00.000
00:08:21.376 : en:00:08:21.376
00:16:46.422 : en:00:16:46.422
00:25:22.020 : en:00:25:22.020
00:29:16.254 : en:00:29:16.254
00:34:09.422 : en:00:34:09.422
00:45:08.456 : en:00:45:08.456
00:51:00.516 : en:00:51:00.516
00:59:08.336 : en:00:59:08.336
01:06:22.729 : en:01:06:22.729
01:12:39.230 : en:01:12:39.230
01:21:58.664 : en:01:21:58.664
01:24:17.094 : en:01:24:17.094
01:31:11.758 : en:01:31:11.758
01:35:35.563 : en:01:35:35.563
01:46:04.441 : en:01:46:04.441

Доп.информация

За блюрей спасибо hdclub

Скриншоты

Source vs Encode




Display posts:    

Current time is: 01-Jun 02:34

All times are UTC ± 0


You cannot post new topics in this forum
You cannot reply to topics in this forum
You cannot edit your posts in this forum
You cannot delete your posts in this forum
You cannot vote in polls in this forum
You cannot attach files in this forum
You cannot download files in this forum

!ATTENTION!
The site does not give electronic versions of products, and is engaged only in a collecting and cataloguing of the references sent and published at a forum by our readers. If you are the legal owner of any submitted material and do not wish that the reference to it was in our catalogue, contact us and we shall immediately remove her. Files for an exchange on tracker are given by users of a site, and the administration does not bear the responsibility for their maintenance. The request to not fill in the files protected by copyrights, and also files of the illegal maintenance!