Ивановский Торрент трекер
Яндекс.Погода
 

[Цитировать]
HUNTER

DJ-Kicks: Jackmaster
Жанр: House, Deep House, Techno, Downtempo
Страна исполнителя: UK, Glasgow
Дата издания: 08.08.2016
Лейбл: !K7 Records
Аудиокодек: MP3
Битрейт аудио: 320 kbps
Тип рипа: tracks
Продолжительность: 1:19:54 + 2:34:25 (3:54:19)
Источник: Bandcamp
Наличие сканов в содержимом раздачи: нет
Треклист:
1. DJ-Kicks - Jackmaster (Continuous Mix) - 01:19:54
2. Lnrdcroy - Freedom For Antboy II - 06:58
3. Denis Sulta - MSNJ - 08:00
4. Phil Moffa - Center Of The World - 06:41
5. X_1 - Happy Hippie Hifi - 05:34
6. Eliphino - Isabella Road - 06:24
7. Massimiliano Pagliara - I Am Running All My Drum Machines At Once And Dancing - 05:11
8. Mike Dunn - A Groove - 04:42
9. Playground Productionz - Orgy (XXX) - 06:59
10. Eli Escobar - Tension (Vinyl Mix) - 05:26
11. Alcatraz Harry - Ode To Frankfurt - 08:26
12. Lory D - Deep Acoustic - 07:53
13. Tomahawk - Forever Free - 03:47
14. Anno Stamm - A Night Out With Therese - 04:52
15. Denis Sulta - Dubelle Oh XX (JVIP) - 06:00
16. Konakov - Clonki Part II - 05:03
17. Mr G - Transient - 09:07
18. Basic Channel - Q1.1/l - 07:53
19. Fango - Vena Cava - 07:44
20. Tessela - Up - 06:50
21. Ricardo Villalobos - Logohitz - 07:49
22. Jackmaster - A2. - 06:37
23. Robert Hood - The Pace - 09:07
24. Overmow - Convulsions - 04:38
25. POM POM - POM POM 18 B2 - 02:44

О сборнике

Jackmaster is one of the most in-demand DJs working today. From humble beginnings behind the counter of legendary record store Rub-A-Dub in Glasgow, Scotland, his has been a grassroots movement to dominate the bills of some of the best electronic music events across Europe and America.The Numbers club night he co-founded a decade ago has grown into a revered label with releases from Jessie Ware, SBTRKT, Rustie, Hudson Mohawke and Jamie xx. Jack has also hosted a series of shows for the globally renowned BBC Radio 1 allowing his charming personality and instinct for judging an audience to unite, a formula that continues to elevate his status as a world class DJ.
Jackmaster's DJ-Kicks is an honest journey, showcasing a serious passion for the obscure boundaries of house and techno. "For me it was important to do something honest and something that sets the record straight in a way," he says. "Some people think I’m a dubstep DJ, some people think I just bang out classics, but neither of those are true. I try not to be too purposely idiosyncratic when selecting music. It’s kind of contrived. I want to educate people but never compromise my vision. I just want to play good music and tell my own story.” The mix features exclusive tracks from Tessela, Alcatraz Harry and Denis Sulta.

Скриншот проверки качества материала

foobar2000 1.3.10 / Замер динамического диапазона (DR) 1.1.1
Дата отчёта: 2016-08-19 02:07:25
--------------------------------------------------------------------------------
Анализ: Alcatraz Harry / DJ-Kicks: Jackmaster (1)
Anno Stamm / DJ-Kicks: Jackmaster (2)
Basic Channel / DJ-Kicks: Jackmaster (3)
Denis Sulta / DJ-Kicks: Jackmaster (4-5)
Eli Escobar / DJ-Kicks: Jackmaster (6)
Eliphino / DJ-Kicks: Jackmaster (7)
Fango / DJ-Kicks: Jackmaster (8)
Jackmaster / DJ-Kicks: Jackmaster (9-10)
Konakov / DJ-Kicks: Jackmaster (11)
Lnrdcroy / DJ-Kicks: Jackmaster (12)
Lory D / DJ-Kicks: Jackmaster (13)
Massimiliano Pagliara / DJ-Kicks: Jackmaster (14)
Mike Dunn / DJ-Kicks: Jackmaster (15)
Mr G / DJ-Kicks: Jackmaster (16)
Overmow / DJ-Kicks: Jackmaster (17)
Phil Moffa / DJ-Kicks: Jackmaster (18)
Playground Productionz / DJ-Kicks: Jackmaster (19)
POM POM / DJ-Kicks: Jackmaster (20)
Ricardo Villalobos / DJ-Kicks: Jackmaster (21)
Robert Hood / DJ-Kicks: Jackmaster (22)
Tessela / DJ-Kicks: Jackmaster (23)
Tomahawk / DJ-Kicks: Jackmaster (24)
X_1 / DJ-Kicks: Jackmaster (25)
--------------------------------------------------------------------------------
DR Пики RMS Продолжительность трека
--------------------------------------------------------------------------------
DR7 0.00 дБ -9.73 дБ 8:27 11-Ode To Frankfurt
DR7 0.00 дБ -9.27 дБ 4:53 14-A Night Out With Therese
DR8 0.00 дБ -9.09 дБ 7:54 18-Q1.1/l
DR11 0.00 дБ -13.93 дБ 8:00 03-MSNJ
DR6 0.00 дБ -7.75 дБ 6:00 15-Dubelle Oh XX (JVIP)
DR8 0.00 дБ -8.65 дБ 5:27 10-Tension (Vinyl Mix)
DR8 0.00 дБ -9.44 дБ 6:25 06-Isabella Road
DR7 0.00 дБ -7.76 дБ 7:45 19-Vena Cava
DR9 0.00 дБ -11.60 дБ 1:19:54 01-DJ-Kicks (Continuous Mix)
DR8 0.00 дБ -9.52 дБ 6:38 22-A2.
DR8 0.00 дБ -9.07 дБ 5:03 16-Clonki Part II
DR8 0.00 дБ -11.28 дБ 6:59 02-Freedom For Antboy II
DR6 0.00 дБ -6.36 дБ 7:53 12-Deep Acoustic
DR9 0.00 дБ -11.01 дБ 5:11 07-I Am Running All My Drum Machines At Once And Dancing
DR9 0.00 дБ -9.88 дБ 4:42 08-A Groove
DR7 0.00 дБ -8.32 дБ 9:07 17-Transient
DR7 0.00 дБ -7.87 дБ 4:39 24-Convulsions
DR8 0.00 дБ -10.82 дБ 6:41 04-Center Of The World
DR8 0.00 дБ -8.97 дБ 6:59 09-Orgy (XXX)
DR13 0.00 дБ -14.09 дБ 2:45 25-POM POM 18 B2
DR6 -0.28 дБ -7.38 дБ 7:49 21-Logohitz
DR9 0.00 дБ -9.51 дБ 9:08 23-The Pace
DR7 0.00 дБ -7.60 дБ 6:51 20-Up
DR12 -0.27 дБ -15.67 дБ 3:47 13-Forever Free
DR10 0.00 дБ -12.00 дБ 5:35 05-Happy Hippie Hifi
--------------------------------------------------------------------------------
Количество треков: 25
Реальные значения DR: DR8
Частота: 44100 Гц
Каналов: 2
Битрейт: 320 кбит/с
Кодек: MP3
================================================================================


Показать сообщения:    

Текущее время: 12-Дек 10:39

Часовой пояс: UTC ± 0


Вы не можете начинать темы
Вы не можете отвечать на сообщения
Вы не можете редактировать свои сообщения
Вы не можете удалять свои сообщения
Вы не можете голосовать в опросах
Вы не можете прикреплять файлы к сообщениям
Вы не можете скачивать файлы

!ВНИМАНИЕ!
Сайт не предоставляет электронные версии произведений, а занимается лишь коллекционированием и каталогизацией ссылок, присылаемых и публикуемых на форуме нашими читателями. Если вы являетесь правообладателем какого-либо представленного материала и не желаете, чтобы ссылка на него находилась в нашем каталоге, свяжитесь с нами, и мы незамедлительно удалим ее. Файлы для обмена на трекере предоставлены пользователями сайта, и администрация не несет ответственности за их содержание. Просьба не заливать файлы, защищенные авторскими правами, а также файлы нелегального содержания!