Важное объявление!
У Нас Все раздачи мультитрекерные, при нуле пиров в релизах, можете смело вставать на закачку!
 
Автор Сообщение

HUNTER

Стаж:
4 года 4 месяца
Сообщений:
56719

Репутация: 101

[+] [-]
Вне форума [Профиль] [ЛС]

Hot Wheels: Начало приключений / Hot Wheels: The Origins of Awesome
Страна: США
Жанр: мультфильм
Продолжительность: : 01:18:00
Год выпуска: 2014
Перевод:Дублированный (Лицензия)
Русские субтитры: нет
Режиссёр: Метт Деннер/Matt Danner
Роли озвучивали: Грант Джордж, Дэвид Лодж, Николас Ройе, Бен Дискин, Фарук Таухид
Описание: В самом мееееедленном городке мира четверо счастливчиков обнаруживают, что жизнь становится намного интересней, если слегка... поддать газку! Познакомьтесь с Гейджем, Уайеттом, Брэндоном и Рэттом. Эти ребята рождены для гонок. Поодиночке они отлично подготовленные рэйсеры, но вместе становятся настоящей КОМАНДОЙ ХОТ ВИЛС! Однажды по городу с ревом проносится загадочная черная машина, оставив после себя невероятную оранжевую трассу, а кроме того – сногсшибательные перемены и бушующих монстров. Отправляйтесь вместе с Командой Хот Вилс в захватывающее приключение, в котором ребятам предстоит столкнуться с Машинами-мутантами, проложить путь по извилистой трассе, стать еще дружнее и, конечно, спасти свой родной город!
Семпл: http://sendfile.su/1024172
Качество: HDRip
Формат: AVI
Видео: Xvid 720x400 23.976fps 1765kbps
Аудио: Русский: Dolby AC3 48000Hz 6ch 448kbps
Аудио:Английский:Dolby AC3 48000Hz 6ch 448kbps

Подробные технические данные

GeneralComplete name : D:\µTorrent\Team.Hot.Wheels.The.Origin.of.Awesome.2014.D.HDRip.1.46Gb.aviFormat : AVIFormat/Info : Audio Video InterleaveFile size : 1.46 GiBDuration : 1h 18mnOverall bit rate : 2 676 KbpsWriting application : VirtualDubMod 1.5.10.2 (build 2540/release)Writing library : VirtualDubMod build 2540/release
VideoID : 0Format : MPEG-4 VisualFormat profile : Advanced Simple@L5Format settings, BVOP : 2Format settings, QPel : NoFormat settings, GMC : No warppointsFormat settings, Matrix : CustomCodec ID : XVIDCodec ID/Hint : XviDDuration : 1h 18mnBit rate : 1 766 KbpsWidth : 720 pixelsHeight : 400 pixelsDisplay aspect ratio : 16:9Frame rate : 23.976 fpsColor space : YUVChroma subsampling : 4:2:0Bit depth : 8 bitsScan type : ProgressiveCompression mode : LossyBits/(Pixel*Frame) : 0.256Stream size : 985 MiB (66%)Writing library : XviD 1.2.1 (UTC 2008-12-04)
Audio #1ID : 1Format : AC-3Format/Info : Audio Coding 3Mode extension : CM (complete main)Codec ID : 2000Duration : 1h 18mnBit rate mode : ConstantBit rate : 448 KbpsChannel(s) : 6 channelsChannel positions : Front: L C R, Side: L R, LFESampling rate : 48.0 KHzBit depth : 16 bitsCompression mode : LossyStream size : 250 MiB (17%)Alignment : Split accross interleavesInterleave, duration : 42 ms (1.00 video frame)Interleave, preload duration : 500 ms
Audio #2ID : 2Format : AC-3Format/Info : Audio Coding 3Mode extension : CM (complete main)Codec ID : 2000Duration : 1h 18mnBit rate mode : ConstantBit rate : 448 KbpsChannel(s) : 6 channelsChannel positions : Front: L C R, Side: L R, LFESampling rate : 48.0 KHzBit depth : 16 bitsCompression mode : LossyStream size : 250 MiB (17%)Alignment : Split accross interleavesInterleave, duration : 42 ms (1.00 video frame)Interleave, preload duration : 500 ms

Скриншоты


_________________
Показать сообщения:    

Текущее время: Сегодня 03:42

Часовой пояс: GMT



Вы не можете начинать темы
Вы не можете отвечать на сообщения
Вы не можете редактировать свои сообщения
Вы не можете удалять свои сообщения
Вы не можете голосовать в опросах
Вы не можете прикреплять файлы к сообщениям
Вы не можете скачивать файлы