Важное объявление!
У Нас Все раздачи мультитрекерные, при нуле пиров в релизах, можете смело вставать на закачку!
 
Автор Сообщение

HUNTER

Стаж:
4 года 4 месяца
Сообщений:
56733

Репутация: 101

[+] [-]
Вне форума [Профиль] [ЛС]

Hot Wheels. За гранью воображения / Team Hot Wheels. The Skills to Thrill
Год выпуска: 2015
Страна: США
Жанр: приключения, семейный, детский
Продолжительность: 00:42:25
Перевод: Профессиональный (дублированный)
Русские субтитры: нет
Режиссёр: Мэтт Дэннер / Matt Danner
Описание: Гарри, злобный брат-близнец Ларри, пытается уничтожить Город Хот Вилс! Гонщики Хот Вилс должны доказать, что они - настоящая команда, способная победить невероятное изобретение Гарри - НитроБота!
Доп. информация: запись (захват) спутниковой трансляции канала "Дисней"., конечные титры немного ускорены ...
Релиз группы:
Семпл: https://yadi.sk/i/qUrSKNP1iszVo
Качество видео: DVB
Формат видео: MPEG-PS
Видео: MPEG2 Video, 720x576 (4:3), 25 fps, 2100 kbps
Аудио: MPEG Audiо, 2 сh, 48 kHz, 192 kbps

MediaInfo

G:\Team Hot Wheels. За гранью воображения. (2015)_DVB by SLuMeP.mpg
General
Complete name : G:\Team Hot Wheels. За гранью воображения. (2015)_DVB by SLuMeP.mpg
Format : MPEG-PS
File size : 723 MiB
Duration : 42mn 25s
Overall bit rate mode : Variable
Overall bit rate : 2 384 Kbps
Video #224
ID : 224 (0xE0)
Format : MPEG Video
Format version : Version 2
Format profile : Main@Main
Format settings, BVOP : Yes
Format settings, Matrix : Custom
Format settings, GOP : Variable
Duration : 42mn 25s
Bit rate mode : Variable
Bit rate : 2 145 Kbps
Maximum bit rate : 15.0 Mbps
Width : 720 pixels
Height : 576 pixels
Display aspect ratio : 4:3
Frame rate : 25.000 fps
Standard : PAL
Color space : YUV
Chroma subsampling : 4:2:0
Bit depth : 8 bits
Scan type : Interlaced
Scan order : Top Field First
Compression mode : Lossy
Bits/(Pixel*Frame) : 0.207
Time code of first frame : 00:00:00:00
Time code source : Group of pictures header
Stream size : 651 MiB (90%)
Audio #192
ID : 192 (0xC0)
Format : MPEG Audio
Format version : Version 1
Format profile : Layer 2
Duration : 42mn 25s
Bit rate mode : Constant
Bit rate : 192 Kbps
Channel(s) : 2 channels
Sampling rate : 48.0 KHz
Compression mode : Lossy
Delay relative to video : 8ms
Stream size : 58.3 MiB (8%)

Скриншоты



_________________
Показать сообщения:    

Текущее время: Сегодня 00:43

Часовой пояс: GMT



Вы не можете начинать темы
Вы не можете отвечать на сообщения
Вы не можете редактировать свои сообщения
Вы не можете удалять свои сообщения
Вы не можете голосовать в опросах
Вы не можете прикреплять файлы к сообщениям
Вы не можете скачивать файлы