Важное объявление!
У Нас Все раздачи мультитрекерные, при нуле пиров в релизах, можете смело вставать на закачку!
Статистика раздачи
Размер:     |    Зарегистрирован:     |    Скачан:     |   
Нет
 
     
 
 
Автор Сообщение

HUNTER

Стаж:
5 лет
Сообщений:
68414

Репутация: 101

[+] [-]
Вне форума [Профиль] [ЛС]

Hot Wheels: Начало приключений / Hot Wheels: The Origins of Awesome-
Год выпуска: 2014
Страны: США
Жанры: мультфильм
Продолжительность: 01:18:00
Перевод: Профессиональный (дублированный) [Лицензия]- Режиссер: Мэтт Дэннер- В ролях: Бен Дискин / Ben Diskin (Brandon), Грант Джордж / Grant George (Gage), Дэвид Лодж / David Lodge (Rhett), Николас Ройе / Nicolas Roye (Wyatt), Faruq Tauheed (Larry), Роб Хаднат / Rob Hudnut ( исполнительный продюсер), Дерек Дресслер / Derek Dressler , Бекки Нюбул / Becky Kneubuhl
- В самом медленном городке мира четверо счастливчиков обнаруживают, что жизнь становится намного интересней, если слегка… поддать газку! Познакомьтесь с Гейджем, Уайеттом, Брэндоном и Рэттом. Эти ребята рождены для гонок. Поодиночке они отлично подготовленные рэйсеры, но вместе становятся настоящей командой Hot Wheels! Однажды по городу с ревом проносится загадочная черная машина, оставив после себя невероятную оранжевую трассу, а кроме того — сногсшибательные перемены и бушующих монстров. Отправляйтесь вместе с Командой Хот Вилс в захватывающее приключение, в котором ребятам предстоит столкнуться с Машинами-мутантами, проложить путь по извилистой трассе, стать еще дружнее и, конечно, спасти свой родной город!- Качество: HDRip-AVC
Формат: MKV
Видео кодек: AVC
Аудио кодек: AC3
Видео: 1024x576 (16:9), 23.976 fps, AVC, 2 100 Kbps
Аудио: AC3, 448 Kbps, 48.0 KHz, 6 ch |Дубляж, Blu-Ray EUR| -

МедиаИнфо

Код: copyText_writeLink('this.parentNode.parentNode.nextSibling.nextSibling');
Код:
General
Complete name                    : Team.Hot.Wheels.The.Origin.Of.Awesome.2014.D.HDRip-AVC.VIP101.mkv
Format                           : Matroska
File size                        : 1.39 GiB
Duration                         : 1h 18mn
Overall bit rate                 : 2 550 Kbps
Encoded date                     : UTC 2014-09-19 13:48:37
Writing application              : mkvmerge v5.0.1 ('Es ist Sommer') built on Nov  6 2011 16:23:40
Writing library                  : libebml v1.2.2 + libmatroska v1.3.0
Video
ID                               : 1
Format                           : AVC
Format/Info                      : Advanced Video Codec
Format profile                   : High@L4.1
Format settings, CABAC           : Yes
Format settings, ReFrames        : 10 frames
Format settings, GOP             : M=4, N=32
Muxing mode                      : Container profile=Unknown@4.1
Codec ID                         : V_MPEG4/ISO/AVC
Duration                         : 1h 18mn
Bit rate                         : 2 100 Kbps
Width                            : 1 024 pixels
Height                           : 576 pixels
Display aspect ratio             : 16:9
Frame rate                       : 23.976 fps
Color space                      : YUV
Chroma subsampling               : 4:2:0
Bit depth                        : 8 bits
Scan type                        : Progressive
Bits/(Pixel*Frame)               : 0.148
Stream size                      : 1.12 GiB (80%)
Writing library                  : x264 core 119 r2106 07efeb4
Encoding settings                : cabac=1 / ref=10 / deblock=1:-1:-2 / analyse=0x3:0x113 / me=hex / subme=9 / psy=1 / psy_rd=1.00:0.10 / mixed_ref=1 / me_range=16 / chroma_me=1 / trellis=1 / 8x8dct=1 / cqm=0 / deadzone=21,11 / fast_pskip=1 / chroma_qp_offset=-3 / threads=12 / sliced_threads=0 / nr=0 / decimate=1 / interlaced=0 / bluray_compat=0 / constrained_intra=0 / bframes=3 / b_pyramid=2 / b_adapt=1 / b_bias=0 / direct=3 / weightb=1 / open_gop=0 / weightp=2 / keyint=240 / keyint_min=23 / scenecut=40 / intra_refresh=0 / rc_lookahead=40 / rc=2pass / mbtree=1 / bitrate=2100 / ratetol=1.0 / qcomp=0.60 / qpmin=0 / qpmax=69 / qpstep=4 / cplxblur=20.0 / qblur=0.5 / ip_ratio=1.40 / aq=1:1.00
Audio
ID                               : 2
Format                           : AC-3
Format/Info                      : Audio Coding 3
Mode extension                   : CM (complete main)
Codec ID                         : A_AC3
Duration                         : 1h 18mn
Bit rate mode                    : Constant
Bit rate                         : 448 Kbps
Channel(s)                       : 6 channels
Channel positions                : Front: L C R, Side: L R, LFE
Sampling rate                    : 48.0 KHz
Bit depth                        : 16 bits
Stream size                      : 250 MiB (18%)

Скриншоты


-Источник:

_________________
Показать сообщения:    

Текущее время: Сегодня 21:38

Часовой пояс: GMT



Вы не можете начинать темы
Вы не можете отвечать на сообщения
Вы не можете редактировать свои сообщения
Вы не можете удалять свои сообщения
Вы не можете голосовать в опросах
Вы не можете прикреплять файлы к сообщениям
Вы не можете скачивать файлы