Ивановский Торрент трекер
Яндекс.Погода
 

[Цитировать]
HUNTER

HardBass 2012
Жанр: Hardstyle
Год издания диска: 2012
Издатель (лейбл): Be Yourself Music
Номер по каталогу: BYMCD002
Аудиокодек: FLAC (*.flac)
Тип рипа: tracks+.cue
Битрейт аудио: lossless
Продолжительность: 284:59
Источник (релизер): SPL
Треклист:

CD 1/4 - Mixed By The Pitcher

Треклист

01. The Pitcher - Ain't Nobody (Re-Amp) 3:0102. Toneshifterz & The Pitcher - Break My Fall 3:5803. Code Black - Visions 3:1204. The Pitcher & Buddahmann - Going H.A.M. 2:5005. The Pitcher & Slim Shore - I'm Alive 4:2206. Jack of Sound - Eternal Night 4:5807. A-Lusion - Just One Voice 3:5508. Tuneboy - Mood To Swing 4:5409. Slim Shore & Nitrouz - Party On! 3:4410. Zany - Squared 4:0311. Zany & Nitrouz - Lonely Dark 3:2712. Pitcher & Szen - Let It Rain 3:1213. Donkey Rollers - Hoodoo Voodoo 3:5414. Pitcher - Raw Bass 3:0115. B-Front - Virus 4:4416. Toneshifterz - Quirk 3:1717. Psyko Punkz - Feel The Rhythm (Alpha2 Remix) 4:0518. Gunz For Hire - Kings Of The Underground 4:5319. Frequencerz & In-Phase - Fight For Survival 4:01

Лог создания рипа

Exact Audio Copy V1.0 beta 3 from 29. August 2011
EAC extraction logfile from February 2012
Unknown Artist / Unknown Title
Used drive : XXX Adapter: 1 ID: 1
Read mode : SecureUtilize accurate stream : YesDefeat audio cache : YesMake use of C2 pointers : No
Read offset correction : 0Overread into Lead-In and Lead-Out : NoFill up missing offset samples with silence : YesDelete leading and trailing silent blocks : NoNull samples used in CRC calculations : YesUsed interface : Native Win32 interface for Win NT & 2000Gap handling : Not detected, thus appended to previous track
Used output format : Internal WAV RoutinesSample format : 44.100 Hz; 16 Bit; Stereo
TOC of the extracted CD
Track | Start | Length | Start sector | End sector --------------------------------------------------------- 1 | 0:00.00 | 3:01.08 | 0 | 13582 2 | 3:01.08 | 3:58.58 | 13583 | 31490 3 | 6:59.66 | 3:11.47 | 31491 | 45862 4 | 10:11.38 | 2:49.42 | 45863 | 58579 5 | 13:01.05 | 4:22.33 | 58580 | 78262 6 | 17:23.38 | 4:57.41 | 78263 | 100578 7 | 22:21.04 | 3:55.39 | 100579 | 118242 8 | 26:16.43 | 4:53.55 | 118243 | 140272 9 | 31:10.23 | 3:44.30 | 140273 | 157102 10 | 34:54.53 | 4:03.15 | 157103 | 175342 11 | 38:57.68 | 3:26.62 | 175343 | 190854 12 | 42:24.55 | 3:11.43 | 190855 | 205222 13 | 45:36.23 | 3:53.74 | 205223 | 222771 14 | 49:30.22 | 3:00.61 | 222772 | 236332 15 | 52:31.08 | 4:44.60 | 236333 | 257692 16 | 57:15.68 | 3:16.61 | 257693 | 272453 17 | 60:32.54 | 4:04.51 | 272454 | 290804 18 | 64:37.30 | 4:53.07 | 290805 | 312786 19 | 69:30.37 | 4:00.45 | 312787 | 330831
Track 1
Filename F:\hardbass\cd1\01-The_Pitcher-Ain't_Nobody_(Re-Amp).wav
Peak level 100.0 % Extraction speed 3.8 X Track quality 100.0 % Copy CRC 154094C4 Copy OK
Track 2
Filename F:\hardbass\cd1\02-Toneshifterz_&_The_Pitcher-Break_My_Fall.wav
Peak level 100.0 % Extraction speed 5.0 X Track quality 100.0 % Copy CRC 4E267B8D Copy OK
Track 3
Filename F:\hardbass\cd1\03-Code_Black-Visions.wav
Peak level 100.0 % Extraction speed 5.2 X Track quality 100.0 % Copy CRC 4E716948 Copy OK
Track 4
Filename F:\hardbass\cd1\04-The_Pitcher_&_Buddahmann-Going_H.A.M..wav
Peak level 100.0 % Extraction speed 5.4 X Track quality 100.0 % Copy CRC DD188DE5 Copy OK
Track 5
Filename F:\hardbass\cd1\05-The_Pitcher_&_Slim_Shore-I'm_Alive.wav
Peak level 100.0 % Extraction speed 6.1 X Track quality 100.0 % Copy CRC 6A5D7E27 Copy OK
Track 6
Filename F:\hardbass\cd1\06-Jack_of_Sound-Eternal_Night.wav
Peak level 100.0 % Extraction speed 6.6 X Track quality 100.0 % Copy CRC D2BB6A3F Copy OK
Track 7
Filename F:\hardbass\cd1\07-A-Lusion-Just_One_Voice.wav
Peak level 100.0 % Extraction speed 6.7 X Track quality 100.0 % Copy CRC 23F72F2F Copy OK
Track 8
Filename F:\hardbass\cd1\08-Tuneboy-Mood_To_Swing.wav
Peak level 100.0 % Extraction speed 7.2 X Track quality 100.0 % Copy CRC 50E5AED8 Copy OK
Track 9
Filename F:\hardbass\cd1\09-Slim_Shore_&_Nitrouz-Party_On!.wav
Peak level 100.0 % Extraction speed 7.3 X Track quality 100.0 % Copy CRC BD3E54A3 Copy OK
Track 10
Filename F:\hardbass\cd1\10-Zany-Squared.wav
Peak level 100.0 % Extraction speed 7.6 X Track quality 100.0 % Copy CRC 759945D7 Copy OK
Track 11
Filename F:\hardbass\cd1\11-Zany_&_Nitrouz-Lonely_Dark.wav
Peak level 100.0 % Extraction speed 6.6 X Track quality 99.9 % Copy CRC 75267B4D Copy OK
Track 12
Filename F:\hardbass\cd1\12-Pitcher_&_Szen-Let_It_Rain.wav
Peak level 100.0 % Extraction speed 6.7 X Track quality 99.9 % Copy CRC E0F029CE Copy OK
Track 13
Filename F:\hardbass\cd1\13-Donkey_Rollers-Hoodoo_Voodoo.wav
Peak level 100.0 % Extraction speed 8.1 X Track quality 100.0 % Copy CRC C93729B2 Copy OK
Track 14
Filename F:\hardbass\cd1\14-Pitcher-Raw_Bass.wav
Peak level 100.0 % Extraction speed 8.0 X Track quality 100.0 % Copy CRC F0351AA5 Copy OK
Track 15
Filename F:\hardbass\cd1\15-B-Front-Virus.wav
Peak level 100.0 % Extraction speed 8.8 X Track quality 100.0 % Copy CRC DF2C4276 Copy OK
Track 16
Filename F:\hardbass\cd1\16-Toneshifterz-Quirk.wav
Peak level 100.0 % Extraction speed 8.6 X Track quality 100.0 % Copy CRC 92FA1196 Copy OK
Track 17
Filename F:\hardbass\cd1\17-Psyko_Punkz-Feel_The_Rhythm_(Alpha2_Remix).wav
Peak level 100.0 % Extraction speed 8.0 X Track quality 99.9 % Copy CRC 1AF1B602 Copy OK
Track 18
Filename F:\hardbass\cd1\18-Gunz_For_Hire-Kings_Of_The_Underground.wav
Peak level 100.0 % Extraction speed 9.5 X Track quality 100.0 % Copy CRC 1A7580E1 Copy OK
Track 19
Filename F:\hardbass\cd1\19-Frequencerz_&_In-Phase-Fight_For_Survival.wav
Peak level 100.0 % Extraction speed 9.5 X Track quality 100.0 % Copy CRC 8472F4C7 Copy OK
No errors occurred
End of status report

Содержание индексной карты (.CUE)

PERFORMER "VA"TITLE "Hard Bass 2012 CD1"FILE "101-the_pitcher-aint_nobody_(re-amp).wav" WAVE TRACK 01 AUDIO TITLE "Ain't Nobody (Re-Amp) " PERFORMER "The Pitcher" INDEX 01 00:00:00FILE "102-toneshifterz_and_the_pitcher-break_my_fall.wav" WAVE TRACK 02 AUDIO TITLE "Break My Fall " PERFORMER "Toneshifterz & The Pitcher" INDEX 01 00:00:00FILE "103-code_black-visions.wav" WAVE TRACK 03 AUDIO TITLE "Visions " PERFORMER "Code Black" INDEX 01 00:00:00FILE "104-the_pitcher_and_buddahmann-going_ham.wav" WAVE TRACK 04 AUDIO TITLE "Going H.A.M." PERFORMER "The Pitcher & Buddahmann" INDEX 01 00:00:00FILE "105-the_pitcher_and_slim_shore-im_alive.wav" WAVE TRACK 05 AUDIO TITLE "I'm Alive" PERFORMER "The Pitcher & Slim Shore" INDEX 01 00:00:00FILE "106-jack_of_sound-eternal_night.wav" WAVE TRACK 06 AUDIO TITLE "Eternal Night" PERFORMER "Jack of Sound" INDEX 01 00:00:00FILE "107-a-lusion-just_one_voice.wav" WAVE TRACK 07 AUDIO TITLE "Just One Voice" PERFORMER "A-Lusion" INDEX 01 00:00:00FILE "108-tuneboy-mood_to_swing.wav" WAVE TRACK 08 AUDIO TITLE "Mood To Swing" PERFORMER "Tuneboy" INDEX 01 00:00:00FILE "109-slim_shore_and_nitrouz-party_on.wav" WAVE TRACK 09 AUDIO TITLE "Party On! " PERFORMER "Slim Shore & Nitrouz" INDEX 01 00:00:00FILE "110-zany-squared.wav" WAVE TRACK 10 AUDIO TITLE "Squared" PERFORMER "Zany" INDEX 01 00:00:00FILE "111-zany_and_nitrouz-lonely_dark.wav" WAVE TRACK 11 AUDIO TITLE "Lonely Dark" PERFORMER "Zany & Nitrouz" INDEX 01 00:00:00FILE "112-the_pitcher_and_szen-let_it_rain.wav" WAVE TRACK 12 AUDIO TITLE "Let It Rain" PERFORMER "The Pitcher & Szen" INDEX 01 00:00:00FILE "113-donkey_rollers-hoodoo_voodoo.wav" WAVE TRACK 13 AUDIO TITLE "Hoodoo Voodoo" PERFORMER "Donkey Rollers" INDEX 01 00:00:00FILE "114-the_pitcher-raw_bass.wav" WAVE TRACK 14 AUDIO TITLE "Raw Bass" PERFORMER "The Pitcher" INDEX 01 00:00:00FILE "115-b-front-virus.wav" WAVE TRACK 15 AUDIO TITLE "Virus" PERFORMER "B-Front" INDEX 01 00:00:00FILE "116-toneshifterz-quirk.wav" WAVE TRACK 16 AUDIO TITLE "Quirk" PERFORMER "Toneshifterz" INDEX 01 00:00:00FILE "117-psyko_punkz-feel_the_rhythm_(alpha2_remix).wav" WAVE TRACK 17 AUDIO TITLE "Feel The Rhythm (Alpha2 Remix)" PERFORMER "Psyko Punkz" INDEX 01 00:00:00FILE "118-gunz_for_hire-kings_of_the_underground.wav" WAVE TRACK 18 AUDIO TITLE "Kings Of The Underground" PERFORMER "Gunz For Hire" INDEX 01 00:00:00FILE "119-frequencerz_and_in-phase-fight_for_survival.wav" WAVE TRACK 19 AUDIO TITLE "Fight For Survival" PERFORMER "Frequencerz & In-Phase" INDEX 01 00:00:00

CD 2/4 - Mixed By Luna

Треклист

01. D-Block & S-Te-Fan vs Deepack - We Do Our Thing 4:2802. Coone & Technoboy - Nustyle Crap (Coone Goes Wild Mix) 2:3303. Josh & Wesz - DSTRCTN 4:4604. Desnar - Curiousity 4:3505. Kevin Kaos & Low-E - Electric Future 3:5406. DJ Mystery - Type Face (Luna & Chain Reaction Remix) 4:1207. Psyko Punkz - Let's Get Ill 4:1208. A-Lusion & Scope DJ - Mechanical 3:5309. Luna & E-Force - Dark Emotions 4:4410. Zatox & The R3belz - Odissea 2011 4:0011. Sasha F - New System 4:5012. The Machine - Place Of Terror (Crypsis Remix) 4:1813. Luna & E-Force - Shade 3:3314. Tatanka - Doom's Day (The R3belz Remix) 4:5515. Crypsis - Gangsta Shit 3:3516. E-Force & Frequencerz - Attention 3:1217. DJ Thera - Disturbia (The R3belz Remix) 3:5018. Crypsis & Radical Redemption feat. MC Tha Watcher - 3:38

Лог создания рипа

Exact Audio Copy V1.0 beta 3 from 29. August 2011
EAC extraction logfile from February 2012
Unknown Artist / Unknown Title
Used drive : XXX Adapter: 1 ID: 1
Read mode : SecureUtilize accurate stream : YesDefeat audio cache : YesMake use of C2 pointers : No
Read offset correction : 0Overread into Lead-In and Lead-Out : NoFill up missing offset samples with silence : YesDelete leading and trailing silent blocks : NoNull samples used in CRC calculations : YesUsed interface : Native Win32 interface for Win NT & 2000Gap handling : Not detected, thus appended to previous track
Used output format : Internal WAV RoutinesSample format : 44.100 Hz; 16 Bit; Stereo
TOC of the extracted CD
Track | Start | Length | Start sector | End sector --------------------------------------------------------- 1 | 0:00.00 | 4:28.42 | 0 | 20141 2 | 4:28.42 | 2:32.66 | 20142 | 31607 3 | 7:01.33 | 4:45.58 | 31608 | 53040 4 | 11:47.16 | 4:35.18 | 53041 | 73683 5 | 16:22.34 | 3:53.73 | 73684 | 91231 6 | 20:16.32 | 4:12.23 | 91232 | 110154 7 | 24:28.55 | 4:12.06 | 110155 | 129060 8 | 28:40.61 | 3:53.03 | 129061 | 146538 9 | 32:33.64 | 4:43.12 | 146539 | 167775 10 | 37:17.01 | 4:00.36 | 167776 | 185811 11 | 41:17.37 | 4:49.46 | 185812 | 207532 12 | 46:07.08 | 4:18.16 | 207533 | 226898 13 | 50:25.24 | 3:33.22 | 226899 | 242895 14 | 53:58.46 | 4:54.66 | 242896 | 265011 15 | 58:53.37 | 3:35.22 | 265012 | 281158 16 | 62:28.59 | 3:11.49 | 281159 | 295532 17 | 65:40.33 | 3:49.63 | 295533 | 312770 18 | 69:30.21 | 3:38.02 | 312771 | 329122
Track 1
Filename F:\hardbass\cd2\01-D-Block_&_S-Te-Fan_vs_Deepack-We_Do_Our_Thing.wav
Peak level 100.0 % Extraction speed 4.3 X Track quality 99.9 % Copy CRC 3DFF203C Copy OK
Track 2
Filename F:\hardbass\cd2\02-Coone_&_Technoboy-Nustyle_Crap_(Coone_Goes_Wild_Mix).wav
Peak level 100.0 % Extraction speed 4.7 X Track quality 100.0 % Copy CRC 5C1EE4E9 Copy OK
Track 3
Filename F:\hardbass\cd2\03-Josh_&_Wesz-DSTRCTN.wav
Peak level 100.0 % Extraction speed 5.6 X Track quality 100.0 % Copy CRC C73CD466 Copy OK
Track 4
Filename F:\hardbass\cd2\04-Desnar-Curiousity.wav
Peak level 100.0 % Extraction speed 5.4 X Track quality 99.9 % Copy CRC 77377406 Copy OK
Track 5
Filename F:\hardbass\cd2\05-Kevin_Kaos_&_Low-E-Electric_Future.wav
Peak level 100.0 % Extraction speed 6.2 X Track quality 100.0 % Copy CRC 59B8E351 Copy OK
Track 6
Filename F:\hardbass\cd2\06-DJ_Mystery-Type_Face_(Luna_&_Chain_Reaction_Remix).wav
Peak level 100.0 % Extraction speed 5.9 X Track quality 99.9 % Copy CRC 492AD0B2 Copy OK
Track 7
Filename F:\hardbass\cd2\07-Psyko_Punkz-Let's_Get_Ill.wav
Peak level 100.0 % Extraction speed 6.9 X Track quality 100.0 % Copy CRC F3EF1E13 Copy OK
Track 8
Filename F:\hardbass\cd2\08-A-Lusion_&_Scope_DJ-Mechanical.wav
Peak level 100.0 % Extraction speed 6.2 X Track quality 99.9 % Copy CRC 982AB07A Copy OK
Track 9
Filename F:\hardbass\cd2\09-Luna_&_E-Force-Dark_Emotions.wav
Peak level 100.0 % Extraction speed 7.6 X Track quality 100.0 % Copy CRC 33285342 Copy OK
Track 10
Filename F:\hardbass\cd2\10-Zatox_&_The_R3belz-Odissea_2011.wav
Peak level 100.0 % Extraction speed 7.6 X Track quality 100.0 % Copy CRC F79CA6EE Copy OK
Track 11
Filename F:\hardbass\cd2\11-Sasha_F-New_System.wav
Peak level 100.0 % Extraction speed 8.1 X Track quality 100.0 % Copy CRC 616E2C96 Copy OK
Track 12
Filename F:\hardbass\cd2\12-The_Machine-Place_Of_Terror_(Crypsis_Remix).wav
Peak level 100.0 % Extraction speed 8.3 X Track quality 100.0 % Copy CRC 0FECD1B7 Copy OK
Track 13
Filename F:\hardbass\cd2\13-Luna_&_E-Force-Shade.wav
Peak level 100.0 % Extraction speed 8.3 X Track quality 100.0 % Copy CRC B6E36368 Copy OK
Track 14
Filename F:\hardbass\cd2\14-Tatanka-Doom's_Day_(The_R3belz_Remix).wav
Peak level 100.0 % Extraction speed 8.9 X Track quality 100.0 % Copy CRC 8CEA283E Copy OK
Track 15
Filename F:\hardbass\cd2\15-Crypsis-Gangsta_Shit.wav
Peak level 100.0 % Extraction speed 8.7 X Track quality 100.0 % Copy CRC 952EBFF8 Copy OK
Track 16
Filename F:\hardbass\cd2\16-E-Force_&_Frequencerz-Attention.wav
Peak level 100.0 % Extraction speed 8.8 X Track quality 100.0 % Copy CRC A6648B0A Copy OK
Track 17
Filename F:\hardbass\cd2\17-DJ_Thera-Disturbia_(The_R3belz_Remix).wav
Peak level 100.0 % Extraction speed 9.2 X Track quality 100.0 % Copy CRC B6B92D05 Copy OK
Track 18
Filename F:\hardbass\cd2\18-Crypsis_&_Radical_Redemption_feat._MC_Tha_Watcher-Unlike_Others.wav
Peak level 100.0 % Extraction speed 9.3 X Track quality 100.0 % Copy CRC 41D4A134 Copy OK
No errors occurred
End of status report

Содержание индексной карты (.CUE)

PERFORMER "VA"TITLE "Hard Bass 2012 CD2"FILE "201-d-block_and_s-te-fan_vs_deepack-we_do_our_thing.wav" WAVE TRACK 01 AUDIO TITLE "We Do Our Thing" PERFORMER "D-Block & S-Te-Fan vs Deepack" INDEX 01 00:00:00FILE "202-coone_and_technoboy-nustyle_crap_(coone_goes_wild_mix).wav" WAVE TRACK 02 AUDIO TITLE "Nustyle Crap (Coone Goes Wild Mix)" PERFORMER "Coone & Technoboy" INDEX 01 00:00:00FILE "203-josh_and_wesz-dstrctn.wav" WAVE TRACK 03 AUDIO TITLE "DSTRCTN" PERFORMER "Josh & Wesz" INDEX 01 00:00:00FILE "204-desnar-curiousity.wav" WAVE TRACK 04 AUDIO TITLE "Curiousity" PERFORMER "Desnar" INDEX 01 00:00:00FILE "205-kevin_kaos_and_low-e-electric_future.wav" WAVE TRACK 05 AUDIO TITLE "Electric Future" PERFORMER "Kevin Kaos & Low-E" INDEX 01 00:00:00FILE "206-dj_mystery-type_face_(luna_and_chain_reaction_remix).wav" WAVE TRACK 06 AUDIO TITLE "Type Face (Luna & Chain Reaction Remix)" PERFORMER "DJ Mystery" INDEX 01 00:00:00FILE "207-psyko_punkz-lets_get_ill.wav" WAVE TRACK 07 AUDIO TITLE "Let's Get Ill" PERFORMER "Psyko Punkz" INDEX 01 00:00:00FILE "208-a-lusion_and_scope_dj-mechanical.wav" WAVE TRACK 08 AUDIO TITLE "Mechanical" PERFORMER "A-Lusion & Scope DJ" INDEX 01 00:00:00FILE "209-luna_and_e-force-dark_emotions.wav" WAVE TRACK 09 AUDIO TITLE "Dark Emotions" PERFORMER "Luna & E-Force" INDEX 01 00:00:00FILE "210-zatox_and_the_r3belz-odissea_2011.wav" WAVE TRACK 10 AUDIO TITLE "Odissea 2011" PERFORMER "Zatox & The R3belz" INDEX 01 00:00:00FILE "211-sasha_f-new_system.wav" WAVE TRACK 11 AUDIO TITLE "New System " PERFORMER "Sasha F" INDEX 01 00:00:00FILE "212-the_machine-place_of_terror_(crypsis_remix).wav" WAVE TRACK 12 AUDIO TITLE "Place Of Terror (Crypsis Remix)" PERFORMER "The Machine" INDEX 01 00:00:00FILE "213-luna_and_e-force-shade.wav" WAVE TRACK 13 AUDIO TITLE "Shade" PERFORMER "Luna & E-Force" INDEX 01 00:00:00FILE "214-tatanka-dooms_day_(the_r3belz_remix).wav" WAVE TRACK 14 AUDIO TITLE "Doom's Day (The R3belz Remix)" PERFORMER "Tatanka" INDEX 01 00:00:00FILE "215-crypsis-gangsta_shit.wav" WAVE TRACK 15 AUDIO TITLE "Gangsta Shit" PERFORMER "Crypsis" INDEX 01 00:00:00FILE "216-e-force_and_frequencerz-attention.wav" WAVE TRACK 16 AUDIO TITLE "Attention" PERFORMER "E-Force & Frequencerz" INDEX 01 00:00:00FILE "217-dj_thera-disturbia_(the_r3belz_remix).wav" WAVE TRACK 17 AUDIO TITLE "Disturbia (The R3belz Remix)" PERFORMER "DJ Thera" INDEX 01 00:00:00FILE "218-crypsis_and_radical_redemption_feat_mc_tha_watcher-unlike_others.wav" WAVE TRACK 18 AUDIO TITLE "Unlike Others" PERFORMER "Crypsis & Radical Redemption feat. MC Tha Watcher" INDEX 01 00:00:00

CD 3/4 - Mixed By Frontliner

Треклист

01. Headhunterz - Eternalize (Hard Bass 2012 Anthem) 4:3902. Frontliner & Max Enforcer - We Forget To Live 3:4703. Psyko Punkz vs Sound Freakerz - Voices 3:2604. Technoboy - Re-Invent Yourself 2:2905. Frontliner & Ellie - Lose The Style 4:0706. Frontliner - Whatever! 3:2707. Wildstylez & Ran-D - Future Shock 4:0708. Frontliner - You Want It 5:1909. Pavo - Let's Go 3:1910. Frontliner - Dream Dust 3:1611. Headhunterz - Doomed 4:4912. Psyko Punkz - No Fear 4:3813. Technoboy - Rage (Frontliner Remix) 5:4314. Noisecontrollers - The Universe Was Born 4:0015. Headhunterz & Zatox feat. Nikkita - The Perfect Weapon 5:5516. B-Front & Crypsis - Movement 3:4017. Frontliner - External Life 4:0318. Zatox - Winter 2:3119. Frontliner - If You Find 4:41

Лог создания рипа

Exact Audio Copy V1.0 beta 3 from 29. August 2011
EAC extraction logfile from February 2012
Unknown Artist / Unknown Title
Used drive : XXX Adapter: 1 ID: 1
Read mode : SecureUtilize accurate stream : YesDefeat audio cache : YesMake use of C2 pointers : No
Read offset correction : 0Overread into Lead-In and Lead-Out : NoFill up missing offset samples with silence : YesDelete leading and trailing silent blocks : NoNull samples used in CRC calculations : YesUsed interface : Native Win32 interface for Win NT & 2000Gap handling : Not detected, thus appended to previous track
Used output format : Internal WAV RoutinesSample format : 44.100 Hz; 16 Bit; Stereo
TOC of the extracted CD
Track | Start | Length | Start sector | End sector --------------------------------------------------------- 1 | 0:00.00 | 4:39.48 | 0 | 20972 2 | 4:39.48 | 3:46.73 | 20973 | 37995 3 | 8:26.46 | 3:26.16 | 37996 | 53461 4 | 11:52.62 | 2:29.01 | 53462 | 64637 5 | 14:21.63 | 4:06.23 | 64638 | 83110 6 | 18:28.11 | 3:27.33 | 83111 | 98668 7 | 21:55.44 | 4:06.65 | 98669 | 117183 8 | 26:02.34 | 5:19.30 | 117184 | 141138 9 | 31:21.64 | 3:19.07 | 141139 | 156070 10 | 34:40.71 | 3:15.62 | 156071 | 170757 11 | 37:56.58 | 4:48.59 | 170758 | 192416 12 | 42:45.42 | 4:37.41 | 192417 | 213232 13 | 47:23.08 | 5:43.62 | 213233 | 239019 14 | 53:06.70 | 3:59.21 | 239020 | 256965 15 | 57:06.16 | 5:54.60 | 256966 | 283575 16 | 63:01.01 | 3:40.31 | 283576 | 300106 17 | 66:41.32 | 4:03.03 | 300107 | 318334 18 | 70:44.35 | 2:30.52 | 318335 | 329636 19 | 73:15.12 | 4:41.59 | 329637 | 350770
Track 1
Filename F:\hardbass\cd3\01-Headhunterz-Eternalize_(Hard_Bass_2012_Anthem).wav
Peak level 100.0 % Extraction speed 4.9 X Track quality 100.0 % Copy CRC 284286BC Copy OK
Track 2
Filename F:\hardbass\cd3\02-Frontliner_&_Max_Enforcer-We_Forget_To_Live.wav
Peak level 100.0 % Extraction speed 5.2 X Track quality 100.0 % Copy CRC CC5ED73E Copy OK
Track 3
Filename F:\hardbass\cd3\03-Psyko_Punkz_vs_Sound_Freakerz-Voices.wav
Peak level 100.0 % Extraction speed 4.8 X Track quality 99.9 % Copy CRC 255BE2B6 Copy OK
Track 4
Filename F:\hardbass\cd3\04-Technoboy-Re-Invent_Yourself.wav
Peak level 100.0 % Extraction speed 5.4 X Track quality 100.0 % Copy CRC 9CF93AA1 Copy OK
Track 5
Filename F:\hardbass\cd3\05-Frontliner_&_Ellie-Lose_The_Style.wav
Peak level 100.0 % Extraction speed 5.5 X Track quality 99.9 % Copy CRC 376CA4E4 Copy OK
Track 6
Filename F:\hardbass\cd3\06-Frontliner-Whatever!.wav
Peak level 100.0 % Extraction speed 6.3 X Track quality 100.0 % Copy CRC 6E391B1B Copy OK
Track 7
Filename F:\hardbass\cd3\07-Wildstylez_&_Ran-D-Future_Shock.wav
Peak level 100.0 % Extraction speed 6.8 X Track quality 100.0 % Copy CRC B37D0169 Copy OK
Track 8
Filename F:\hardbass\cd3\08-Frontliner-You_Want_It.wav
Peak level 100.0 % Extraction speed 6.7 X Track quality 99.9 % Copy CRC A32D431D Copy OK
Track 9
Filename F:\hardbass\cd3\09-Pavo-Let's_Go.wav
Peak level 100.0 % Extraction speed 7.2 X Track quality 100.0 % Copy CRC 2E1F2820 Copy OK
Track 10
Filename F:\hardbass\cd3\10-Frontliner-Dream_Dust.wav
Peak level 100.0 % Extraction speed 7.3 X Track quality 100.0 % Copy CRC C9AE1C3B Copy OK
Track 11
Filename F:\hardbass\cd3\11-Headhunterz-Doomed.wav
Peak level 100.0 % Extraction speed 8.0 X Track quality 100.0 % Copy CRC F515FE42 Copy OK
Track 12
Filename F:\hardbass\cd3\12-Psyko_Punkz-No_Fear.wav
Peak level 100.0 % Extraction speed 7.4 X Track quality 99.9 % Copy CRC E3BE5700 Copy OK
Track 13
Filename F:\hardbass\cd3\13-Technoboy-Rage_(Frontliner_Remix).wav
Peak level 100.0 % Extraction speed 8.8 X Track quality 100.0 % Copy CRC AD6C8CF3 Copy OK
Track 14
Filename F:\hardbass\cd3\14-Noisecontrollers-The_Universe_Was_Born.wav
Peak level 100.0 % Extraction speed 8.7 X Track quality 100.0 % Copy CRC 12345E89 Copy OK
Track 15
Filename F:\hardbass\cd3\15-Headhunterz_&_Zatox_feat._Nikkita-The_Perfect_Weapon.wav
Peak level 100.0 % Extraction speed 9.3 X Track quality 100.0 % Copy CRC A9E0C4AC Copy OK
Track 16
Filename F:\hardbass\cd3\16-B-Front_&_Crypsis-Movement.wav
Peak level 100.0 % Extraction speed 8.0 X Track quality 99.9 % Copy CRC 007E8C6D Copy OK
Track 17
Filename F:\hardbass\cd3\17-Frontliner-External_Life.wav
Peak level 100.0 % Extraction speed 8.3 X Track quality 99.9 % Copy CRC 4648428E Copy OK
Track 18
Filename F:\hardbass\cd3\18-Zatox-Winter.wav
Peak level 100.0 % Extraction speed 8.8 X Track quality 100.0 % Copy CRC 1421B850 Copy OK
Track 19
Filename F:\hardbass\cd3\19-Frontliner-If_You_Find.wav
Peak level 100.0 % Extraction speed 9.9 X Track quality 100.0 % Copy CRC 2EA10D51 Copy OK
No errors occurred
End of status report

Содержание индексной карты (.CUE)

PERFORMER "VA"TITLE "Hard Bass 2012 CD3"FILE "301-headhunterz-eternalize_(hard_bass_2012_anthem).wav" WAVE TRACK 01 AUDIO TITLE "Eternalize (Hard Bass 2012 Anthem)" PERFORMER "Headhunterz" INDEX 01 00:00:00FILE "302-frontliner_and_max_enforcer-we_forget_to_live.wav" WAVE TRACK 02 AUDIO TITLE "We Forget To Live" PERFORMER "Frontliner & Max Enforcer" INDEX 01 00:00:00FILE "303-psyko_punkz_vs_sound_freakerz-voices.wav" WAVE TRACK 03 AUDIO TITLE "Voices" PERFORMER "Psyko Punkz vs Sound Freakerz" INDEX 01 00:00:00FILE "304-technoboy-re-invent_yourself.wav" WAVE TRACK 04 AUDIO TITLE "Re-Invent Yourself" PERFORMER "Technoboy" INDEX 01 00:00:00FILE "305-frontliner_and_ellie-lose_the_style.wav" WAVE TRACK 05 AUDIO TITLE "Lose The Style" PERFORMER "Frontliner & Ellie" INDEX 01 00:00:00FILE "306-frontliner-whatever.wav" WAVE TRACK 06 AUDIO TITLE "Whatever!" PERFORMER "Frontliner" INDEX 01 00:00:00FILE "307-wildstylez_and_ran-d-future_shock.wav" WAVE TRACK 07 AUDIO TITLE "Future Shock" PERFORMER "Wildstylez & Ran-D" INDEX 01 00:00:00FILE "308-frontliner-you_want_it.wav" WAVE TRACK 08 AUDIO TITLE "You Want It" PERFORMER "Frontliner" INDEX 01 00:00:00FILE "309-pavo-lets_go.wav" WAVE TRACK 09 AUDIO TITLE "Let's Go" PERFORMER "Pavo" INDEX 01 00:00:00FILE "310-frontliner-dream_dust.wav" WAVE TRACK 10 AUDIO TITLE "Dream Dust" PERFORMER "Frontliner" INDEX 01 00:00:00FILE "311-headhunterz-doomed.wav" WAVE TRACK 11 AUDIO TITLE "Doomed" PERFORMER "Headhunterz" INDEX 01 00:00:00FILE "312-psyko_punkz-no_fear.wav" WAVE TRACK 12 AUDIO TITLE "No Fear" PERFORMER "Psyko Punkz" INDEX 01 00:00:00FILE "313-technoboy-rage_(frontliner_remix).wav" WAVE TRACK 13 AUDIO TITLE "Rage (Frontliner Remix)" PERFORMER "Technoboy" INDEX 01 00:00:00FILE "314-noisecontrollers-the_universe_was_born.wav" WAVE TRACK 14 AUDIO TITLE "The Universe Was Born" PERFORMER "Noisecontrollers" INDEX 01 00:00:00FILE "315-headhunterz_and_zatox_feat_nikkita-the_perfect_weapon.wav" WAVE TRACK 15 AUDIO TITLE "The Perfect Weapon" PERFORMER "Headhunterz & Zatox feat. Nikkita" INDEX 01 00:00:00FILE "316-b-front_and_crypsis-movement.wav" WAVE TRACK 16 AUDIO TITLE "Movement" PERFORMER "B-Front & Crypsis" INDEX 01 00:00:00FILE "317-frontliner-external_life.wav" WAVE TRACK 17 AUDIO TITLE "External Life" PERFORMER "Frontliner" INDEX 01 00:00:00FILE "318-zatox-winter.wav" WAVE TRACK 18 AUDIO TITLE "Winter" PERFORMER "Zatox" INDEX 01 00:00:00FILE "319-frontliner-if_you_find.wav" WAVE TRACK 19 AUDIO TITLE "If You Find" PERFORMER "Frontliner" INDEX 01 00:00:00

CD 4/4 - Mixed By Chris One

Треклист

1. Digital Punk & MC Jeff - Keep It Bouncing (The R3belz 3:03Remix)2. Zatox & Max Enforcer - It Must Be 3:453. Code Black & Wasted Penguinz - Activated 3:024. Headhunterz & Wildstylez vs. Noisecontrollers - Tonight 3:34Alpha2 Remix5. Adaro - No Time To Sleep 2:566. Wild Motherfuckers - Wildest 3:047. Gunz For Hire - The Cycle 3:238. Digital Punk & MC Jeff - Can't Be Stopped 2:499. Nitrouz - Conquer Your Fears 4:1010. Frequencerz - Revolution 3:2011. Zany - Worship 4:1012. The R3belz - Reactivating The Bionicle 2:5413. Zany & The Beholder - Act Of Rage 3:0314. The Beholder & Max Enforcer - Bitcrusher (Chris One 4:00Remix)15. The Machine - Audiobot (B-Front Remix) 2:4216. The Machine & Chris One - Never Fall Asleep 4:0917. Zany & DV8 - Distorted (B-Front Remix) 3:5618. Chris One - Psycho 2:23

Лог создания рипа

Exact Audio Copy V1.0 beta 3 from 29. August 2011
EAC extraction logfile from February 2012
Unknown Artist / Unknown Title
Used drive : XXX Adapter: 1 ID: 1
Read mode : SecureUtilize accurate stream : YesDefeat audio cache : YesMake use of C2 pointers : No
Read offset correction : 0Overread into Lead-In and Lead-Out : NoFill up missing offset samples with silence : YesDelete leading and trailing silent blocks : NoNull samples used in CRC calculations : YesUsed interface : Native Win32 interface for Win NT & 2000Gap handling : Not detected, thus appended to previous track
Used output format : Internal WAV RoutinesSample format : 44.100 Hz; 16 Bit; Stereo
TOC of the extracted CD
Track | Start | Length | Start sector | End sector --------------------------------------------------------- 1 | 0:00.00 | 3:03.13 | 0 | 13737 2 | 3:03.13 | 3:45.20 | 13738 | 30632 3 | 6:48.33 | 3:02.40 | 30633 | 44322 4 | 9:50.73 | 3:33.57 | 44323 | 60354 5 | 13:24.55 | 2:55.64 | 60355 | 73543 6 | 16:20.44 | 3:03.38 | 73544 | 87306 7 | 19:24.07 | 3:23.52 | 87307 | 102583 8 | 22:47.59 | 2:49.02 | 102584 | 115260 9 | 25:36.61 | 4:10.11 | 115261 | 134021 10 | 29:46.72 | 3:19.36 | 134022 | 148982 11 | 33:06.33 | 4:09.68 | 148983 | 167725 12 | 37:16.26 | 2:54.36 | 167726 | 180811 13 | 40:10.62 | 3:02.62 | 180812 | 194523 14 | 43:13.49 | 4:00.09 | 194524 | 212532 15 | 47:13.58 | 2:41.36 | 212533 | 224643 16 | 49:55.19 | 4:09.51 | 224644 | 243369 17 | 54:04.70 | 3:55.28 | 243370 | 261022 18 | 58:00.23 | 2:22.60 | 261023 | 271732
Track 1
Filename F:\hardbass\cd4\01-_Digital_Punk_&_MC_Jeff-Keep_It_Bouncing_(The_R3belz_Remix).wav
Peak level 100.0 % Extraction speed 3.5 X Track quality 100.0 % Copy CRC 80C142A5 Copy OK
Track 2
Filename F:\hardbass\cd4\02-Zatox_&_Max_Enforcer-It_Must_Be.wav
Peak level 100.0 % Extraction speed 4.7 X Track quality 100.0 % Copy CRC 4C59426F Copy OK
Track 3
Filename F:\hardbass\cd4\03-Code_Black_&_Wasted_Penguinz-Activated.wav
Peak level 100.0 % Extraction speed 4.8 X Track quality 100.0 % Copy CRC B7CAB101 Copy OK
Track 4
Filename F:\hardbass\cd4\04-Headhunterz_&_Wildstylez_vs._Noisecontrollers-Tonight_(Alpha2_Remix).wav
Peak level 100.0 % Extraction speed 5.3 X Track quality 100.0 % Copy CRC 1A77BBA1 Copy OK
Track 5
Filename F:\hardbass\cd4\05-Adaro-No_Time_To_Sleep.wav
Peak level 100.0 % Extraction speed 5.4 X Track quality 100.0 % Copy CRC BCC5159D Copy OK
Track 6
Filename F:\hardbass\cd4\06-Wild_Motherfuckers-Wildest.wav
Peak level 100.0 % Extraction speed 5.7 X Track quality 100.0 % Copy CRC B43F056C Copy OK
Track 7
Filename F:\hardbass\cd4\07-Gunz_For_Hire-The_Cycle.wav
Peak level 100.0 % Extraction speed 6.0 X Track quality 100.0 % Copy CRC 2844A994 Copy OK
Track 8
Filename F:\hardbass\cd4\08-Digital_Punk_&_MC_Jeff-Can't_Be_Stopped.wav
Peak level 100.0 % Extraction speed 6.0 X Track quality 100.0 % Copy CRC 979459B4 Copy OK
Track 9
Filename F:\hardbass\cd4\09-Nitrouz-Conquer_Your_Fears.wav
Peak level 100.0 % Extraction speed 6.7 X Track quality 100.0 % Copy CRC F97186BE Copy OK
Track 10
Filename F:\hardbass\cd4\10-Frequencerz-Revolution.wav
Peak level 100.0 % Extraction speed 6.8 X Track quality 100.0 % Copy CRC 603B78B7 Copy OK
Track 11
Filename F:\hardbass\cd4\11-Zany-Worship.wav
Peak level 100.0 % Extraction speed 7.2 X Track quality 100.0 % Copy CRC 9EFFF20B Copy OK
Track 12
Filename F:\hardbass\cd4\12-The_R3belz-Reactivating_The_Bionicle.wav
Peak level 100.0 % Extraction speed 7.0 X Track quality 100.0 % Copy CRC C0DC47C3 Copy OK
Track 13
Filename F:\hardbass\cd4\13-Zany_&_The_Beholder-Act_Of_Rage.wav
Peak level 100.0 % Extraction speed 7.2 X Track quality 100.0 % Copy CRC BEA90E5E Copy OK
Track 14
Filename F:\hardbass\cd4\14-The_Beholder_&_Max_Enforcer-Bitcrusher_(Chris_One_Remix).wav
Peak level 100.0 % Extraction speed 7.8 X Track quality 100.0 % Copy CRC 89106ED8 Copy OK
Track 15
Filename F:\hardbass\cd4\15-The_Machine-Audiobot_(B-Front_Remix).wav
Peak level 100.0 % Extraction speed 7.4 X Track quality 100.0 % Copy CRC CDBEBF6C Copy OK
Track 16
Filename F:\hardbass\cd4\16-The_Machine_&_Chris_One-Never_Fall_Asleep.wav
Peak level 100.0 % Extraction speed 7.3 X Track quality 99.9 % Copy CRC 833336FD Copy OK
Track 17
Filename F:\hardbass\cd4\17-Zany_&_DV8-Distorted_(B-Front_Remix).wav
Peak level 100.0 % Extraction speed 7.4 X Track quality 99.9 % Copy CRC 048E8DB2 Copy OK
Track 18
Filename F:\hardbass\cd4\18-Chris_One-Psycho.wav
Peak level 98.6 % Extraction speed 7.7 X Track quality 100.0 % Copy CRC 9644EC53 Copy OK
No errors occurred
End of status report

Содержание индексной карты (.CUE)

PERFORMER "VA"TITLE "Hard Bass 2012 CD4"FILE "401-digital_punk_and_mc_jeff-keep_it_bouncing_(the_r3belz_remix).wav" WAVE TRACK 01 AUDIO TITLE "Keep It Bouncing (The R3belz Remix)" PERFORMER " Digital Punk & MC Jeff" INDEX 01 00:00:00FILE "402-zatox_and_max_enforcer-it_must_be.wav" WAVE TRACK 02 AUDIO TITLE "It Must Be" PERFORMER "Zatox & Max Enforcer" INDEX 01 00:00:00FILE "403-code_black_and_wasted_penguinz-activated.wav" WAVE TRACK 03 AUDIO TITLE "Activated" PERFORMER "Code Black & Wasted Penguinz" INDEX 01 00:00:00FILE "404-headhunterz_and_wildstylez_vs_noisecontrollers-tonight_(alpha2_remix).wav" WAVE TRACK 04 AUDIO TITLE "Tonight (Alpha2 Remix)" PERFORMER "Headhunterz & Wildstylez vs. Noisecontrollers" INDEX 01 00:00:00FILE "405-adaro-no_time_to_sleep.wav" WAVE TRACK 05 AUDIO TITLE "No Time To Sleep" PERFORMER "Adaro" INDEX 01 00:00:00FILE "406-wild_motherfuckers-wildest.wav" WAVE TRACK 06 AUDIO TITLE "Wildest" PERFORMER "Wild Motherfuckers" INDEX 01 00:00:00FILE "407-gunz_for_hire-the_cycle.wav" WAVE TRACK 07 AUDIO TITLE "The Cycle" PERFORMER "Gunz For Hire" INDEX 01 00:00:00FILE "408-digital_punk_and_mc_jeff-cant_be_stopped.wav" WAVE TRACK 08 AUDIO TITLE "Can't Be Stopped" PERFORMER "Digital Punk & MC Jeff" INDEX 01 00:00:00FILE "409-nitrouz-conquer_your_fears.wav" WAVE TRACK 09 AUDIO TITLE "Conquer Your Fears" PERFORMER "Nitrouz" INDEX 01 00:00:00FILE "410-frequencerz-revolution.wav" WAVE TRACK 10 AUDIO TITLE "Revolution" PERFORMER "Frequencerz" INDEX 01 00:00:00FILE "411-zany-worship.wav" WAVE TRACK 11 AUDIO TITLE "Worship" PERFORMER "Zany" INDEX 01 00:00:00FILE "412-the_r3belz-reactivating_the_bionicle.wav" WAVE TRACK 12 AUDIO TITLE "Reactivating The Bionicle" PERFORMER "The R3belz" INDEX 01 00:00:00FILE "413-zany_and_the_beholder-act_of_rage.wav" WAVE TRACK 13 AUDIO TITLE "Act Of Rage" PERFORMER "Zany & The Beholder" INDEX 01 00:00:00FILE "414-the_beholder_and_max_enforcer-bitcrusher_(chris_one_remix).wav" WAVE TRACK 14 AUDIO TITLE "Bitcrusher (Chris One Remix)" PERFORMER "The Beholder & Max Enforcer" INDEX 01 00:00:00FILE "415-the_machine-audiobot_(b-front_remix).wav" WAVE TRACK 15 AUDIO TITLE "Audiobot (B-Front Remix)" PERFORMER "The Machine" INDEX 01 00:00:00FILE "416-the_machine_and_chris_one-never_fall_asleep.wav" WAVE TRACK 16 AUDIO TITLE "Never Fall Asleep" PERFORMER "The Machine & Chris One" INDEX 01 00:00:00FILE "417-zany_and_dv8-distorted_(b-front_remix).wav" WAVE TRACK 17 AUDIO TITLE "Distorted (B-Front Remix)" PERFORMER "Zany & DV8" INDEX 01 00:00:00FILE "418-chris_one-psycho.wav" WAVE TRACK 18 AUDIO TITLE "Psycho" PERFORMER "Chris One" INDEX 01 00:00:00


Показать сообщения:    

Текущее время: 17-Дек 21:40

Часовой пояс: UTC ± 0


Вы не можете начинать темы
Вы не можете отвечать на сообщения
Вы не можете редактировать свои сообщения
Вы не можете удалять свои сообщения
Вы не можете голосовать в опросах
Вы не можете прикреплять файлы к сообщениям
Вы не можете скачивать файлы

!ВНИМАНИЕ!
Сайт не предоставляет электронные версии произведений, а занимается лишь коллекционированием и каталогизацией ссылок, присылаемых и публикуемых на форуме нашими читателями. Если вы являетесь правообладателем какого-либо представленного материала и не желаете, чтобы ссылка на него находилась в нашем каталоге, свяжитесь с нами, и мы незамедлительно удалим ее. Файлы для обмена на трекере предоставлены пользователями сайта, и администрация не несет ответственности за их содержание. Просьба не заливать файлы, защищенные авторскими правами, а также файлы нелегального содержания!