Важное объявление!
У Нас Все раздачи мультитрекерные, при нуле пиров в релизах, можете смело вставать на закачку!
 
Автор Сообщение

HUNTER

Стаж:
4 года 10 месяцев
Сообщений:
65492

Репутация: 101

[+] [-]
Вне форума [Профиль] [ЛС]

Reverze 2014 - Gardians Of Time - (TOFF040) - 2CD
Жанр: hardstyle/jumpstyle/hardcore
Носитель: CD
Год издания: 2014
Издатель (лейбл): Toffmusic
Номер по каталогу: TOFF040
Аудиокодек: FLAC (*.flac)
Тип рипа: tracks+.cue
Битрейт аудио: lossless
Продолжительность: 2:33:49
Источник (релизер): 1nDD
Наличие сканов в содержимом раздачи: да
Треклист:
CD1
1 Audiofreq - Guardians Of Time (Reverze 14 Anthem) 4:29
2 Isaac & F8trix - Groupie Love (150 Mix) 3:
3 Outlander - Telepathy 4:28
4 D-Block & S-Te-Fan - Built This City 3:03
5 Audiofreq - The Gospel 3:25
6 Waverider - For The Music 3:25
7 Phuture Noize Feat. MC DL - Fadin' (Atmozfears Remix) 4:54
8 Da Tweekaz Feat. MC V - Zero Fucks Given 4:27
9 Ran-D & Hard Driver - Animals 4:34
10 Technoboy - Wargames 4:14
11 Audiofreq - Desire 4:18
12 D-Block & S-Te-Fan - Next Level 4:03
13 Tuneboy Feat. Soleo - Six 2:40
14 Neilio & Omegatypez - Robotronic 3:50
15 Brennan Heart & Zatox - Fight The Resistance 3:43
16 Coone & Frontliner - World Domination 4:03
17 Ran-D & B-Front - The Message 4:30
18 Zatox & Activator - Make Some Noise 4:12
19 Endymion & Pandorum Feat. Frankie McCoy - Under Your Skin 3:53
CD2
1 Mark With A K - Krijg Ons Niet Stil (with Ruthless Feat. Mc Alee) 3:36
2 Davoodi - Bomsquad 2:21
3 Bestien - Dat Ass 2:40
4 Akyra - In The Dark (Demo Version) 2:27
5 LNY TNZ & Demoniak - Loud Beats 2:48
6 Outlander - Transit 4:54
7 Neilio - And God Said 2k14 4:54
8 Darren Styles & Gammer - You & I (Da Tweekaz Remix) 5:14
9 Code Black & Atmozfears - Starting Over 3:01
10 Wasted Penguinz & Chris One - I Miss You 4:
11 Psyko Punkz, MC Lyte and Chris Willis - This Is Your Life 3:38
12 Coone & Hard Driver - Showtime 3:25
13 Brennan Heart - F.I.F.O. (Outbreak Remix) 3:42
14 Digital Punk - Invasion 4:01
15 Phuture Noize - Wrong Attitude 3:31
16 Zatox & Hit 'N' Run - Never More 5:04
17 DJ Mad Dog - The Memory Disappears (Adaro Remix) 4:03
18 Frontliner - Death Of A Demon (B-Front Remix) 4:02
19 Radical Redemption & Frequencerz - Insanity 3:34
20 Art Of Fighters - Fuck You! 3:48
21 Tieum & Angerfist - Dirty Man 3:25

Лог создания рипа CD1

Exact Audio Copy V1.0 beta 3 from 29. August 2011
EAC extraction logfile from 15. March 2014, 20:00
Various Artists / Reverze 2014: Guardians Of Time
Used drive : ASUS DRW-24B3ST Adapter: 1 ID: 1
Read mode : SecureUtilize accurate stream : YesDefeat audio cache : YesMake use of C2 pointers : No
Read offset correction : 6Overread into Lead-In and Lead-Out : NoFill up missing offset samples with silence : YesDelete leading and trailing silent blocks : NoNull samples used in CRC calculations : YesUsed interface : Native Win32 interface for Win NT & 2000Gap handling : Appended to previous track
Used output format : User Defined EncoderSelected bitrate : 1024 kBit/sQuality : HighAdd ID3 tag : NoCommand line compressor : C:\Program Files (x86)\Exact Audio Copy\Flac\flac.exeAdditional command line options : -8 -V -T "ARTIST=%artist%" -T "TITLE=%title%" -T "ALBUM=%albumtitle%" -T "DATE=%year%" -T "TRACKNUMBER=%tracknr%" -T "GENRE=%genre%" -T"PERFORMER=%albuminterpret%" -T "COMPOSER=%composer%" %haslyrics%--tag-from-file=LYRICS="%lyricsfile%"%haslyrics% -T "ALBUMARTIST=%albumartist%" -T "DISCNUMBER=%cdnumber%" -T "TOTALDISCS=%totalcds%" -T "TOTALTRACKS=%numtracks%" -T "COMMENT=%comment%" %source% -o %dest%
TOC of the extracted CD
Track | Start | Length | Start sector | End sector --------------------------------------------------------- 1 | 0:00.00 | 4:28.59 | 0 | 20158 2 | 4:28.59 | 3:20.01 | 20159 | 35159 3 | 7:48.60 | 4:28.29 | 35160 | 55288 4 | 12:17.14 | 3:02.32 | 55289 | 68970 5 | 15:19.46 | 3:25.14 | 68971 | 84359 6 | 18:44.60 | 3:24.60 | 84360 | 99719 7 | 22:09.45 | 4:54.30 | 99720 | 121799 8 | 27:04.00 | 4:27.16 | 121800 | 141840 9 | 31:31.16 | 4:33.44 | 141841 | 162359 10 | 36:04.60 | 4:14.30 | 162360 | 181439 11 | 40:19.15 | 4:17.45 | 181440 | 200759 12 | 44:36.60 | 4:03.14 | 200760 | 218998 13 | 48:39.74 | 2:40.01 | 218999 | 230999 14 | 51:20.00 | 3:50.30 | 231000 | 248279 15 | 55:10.30 | 3:42.60 | 248280 | 264989 16 | 58:53.15 | 4:02.60 | 264990 | 283199 17 | 62:56.00 | 4:30.30 | 283200 | 303479 18 | 67:26.30 | 4:12.32 | 303480 | 322411 19 | 71:38.62 | 3:53.00 | 322412 | 339886
Track 1
Filename C:\VA-Reverze_2014_Gardians_Of_Time-(TOFF040)-2CD-FLAC-2014-1nDD\(101) [Audiofreq] Guardians Of Time (Reverze 2014 Anthem).wav
Pre-gap length 0:00:02.00
Peak level 98.7 % Extraction speed 3.7 X Track quality 100.0 % Test CRC CA125324 Copy CRC CA125324 Track not present in AccurateRip database Copy OK
Track 2
Filename C:\VA-Reverze_2014_Gardians_Of_Time-(TOFF040)-2CD-FLAC-2014-1nDD\(102) [Isaac and F8trix] Groupie Love (150 Mix).wav
Peak level 98.7 % Extraction speed 3.9 X Track quality 100.0 % Test CRC FE3594BB Copy CRC FE3594BB Track not present in AccurateRip database Copy OK
Track 3
Filename C:\VA-Reverze_2014_Gardians_Of_Time-(TOFF040)-2CD-FLAC-2014-1nDD\(103) [Outlander] Telepathy.wav
Peak level 98.7 % Extraction speed 4.4 X Track quality 100.0 % Test CRC 266E59C7 Copy CRC 266E59C7 Track not present in AccurateRip database Copy OK
Track 4
Filename C:\VA-Reverze_2014_Gardians_Of_Time-(TOFF040)-2CD-FLAC-2014-1nDD\(104) [D-Block and S-Te-Fan] Built This City.wav
Peak level 98.7 % Extraction speed 4.4 X Track quality 100.0 % Test CRC EBB216A7 Copy CRC EBB216A7 Track not present in AccurateRip database Copy OK
Track 5
Filename C:\VA-Reverze_2014_Gardians_Of_Time-(TOFF040)-2CD-FLAC-2014-1nDD\(105) [Audiofreq] The Gospel.wav
Peak level 98.7 % Extraction speed 3.7 X Track quality 99.9 % Test CRC 9FEFF4C9 Copy CRC 9FEFF4C9 Track not present in AccurateRip database Copy OK
Track 6
Filename C:\VA-Reverze_2014_Gardians_Of_Time-(TOFF040)-2CD-FLAC-2014-1nDD\(106) [Waverider] For The Music.wav
Peak level 98.7 % Extraction speed 4.9 X Track quality 100.0 % Test CRC B1E7EC64 Copy CRC B1E7EC64 Track not present in AccurateRip database Copy OK
Track 7
Filename C:\VA-Reverze_2014_Gardians_Of_Time-(TOFF040)-2CD-FLAC-2014-1nDD\(107) [Phuture Noize Feat. MC DL] Fadin (Atmozfears Remix).wav
Peak level 98.7 % Extraction speed 5.4 X Track quality 100.0 % Test CRC F7407A7E Copy CRC F7407A7E Track not present in AccurateRip database Copy OK
Track 8
Filename C:\VA-Reverze_2014_Gardians_Of_Time-(TOFF040)-2CD-FLAC-2014-1nDD\(108) [Da Tweekaz Feat. MC V] Zero Fucks Given.wav
Peak level 98.7 % Extraction speed 4.6 X Track quality 99.9 % Test CRC 2BA42C2E Copy CRC 2BA42C2E Track not present in AccurateRip database Copy OK
Track 9
Filename C:\VA-Reverze_2014_Gardians_Of_Time-(TOFF040)-2CD-FLAC-2014-1nDD\(109) [Ran-D and Hard Driver] Animals.wav
Peak level 98.7 % Extraction speed 5.8 X Track quality 100.0 % Test CRC 62FE6786 Copy CRC 62FE6786 Track not present in AccurateRip database Copy OK
Track 10
Filename C:\VA-Reverze_2014_Gardians_Of_Time-(TOFF040)-2CD-FLAC-2014-1nDD\(110) [Technoboy] Wargames.wav
Peak level 98.7 % Extraction speed 6.0 X Track quality 100.0 % Test CRC 07BEF1B4 Copy CRC 07BEF1B4 Track not present in AccurateRip database Copy OK
Track 11
Filename C:\VA-Reverze_2014_Gardians_Of_Time-(TOFF040)-2CD-FLAC-2014-1nDD\(111) [Audiofreq] Desire.wav
Peak level 98.7 % Extraction speed 5.1 X Track quality 99.9 % Test CRC E71E581C Copy CRC E71E581C Track not present in AccurateRip database Copy OK
Track 12
Filename C:\VA-Reverze_2014_Gardians_Of_Time-(TOFF040)-2CD-FLAC-2014-1nDD\(112) [D-Block and S-Te-Fan] Next Level.wav
Peak level 98.7 % Extraction speed 6.4 X Track quality 100.0 % Test CRC C1069C02 Copy CRC C1069C02 Track not present in AccurateRip database Copy OK
Track 13
Filename C:\VA-Reverze_2014_Gardians_Of_Time-(TOFF040)-2CD-FLAC-2014-1nDD\(113) [Tuneboy Feat. Soleo] Six.wav
Peak level 98.7 % Extraction speed 4.5 X Track quality 99.9 % Test CRC 4B03D77A Copy CRC 4B03D77A Track not present in AccurateRip database Copy OK
Track 14
Filename C:\VA-Reverze_2014_Gardians_Of_Time-(TOFF040)-2CD-FLAC-2014-1nDD\(114) [Neilio and Omegatypez] Robotronic.wav
Peak level 98.7 % Extraction speed 5.3 X Track quality 99.9 % Test CRC 0FCEFD94 Copy CRC 0FCEFD94 Track not present in AccurateRip database Copy OK
Track 15
Filename C:\VA-Reverze_2014_Gardians_Of_Time-(TOFF040)-2CD-FLAC-2014-1nDD\(115) [Brennan Heart and Zatox] Fight The Resistance.wav
Peak level 98.7 % Extraction speed 6.7 X Track quality 100.0 % Test CRC 215C86FA Copy CRC 215C86FA Track not present in AccurateRip database Copy OK
Track 16
Filename C:\VA-Reverze_2014_Gardians_Of_Time-(TOFF040)-2CD-FLAC-2014-1nDD\(116) [Coone and Frontliner] World Domination.wav
Peak level 98.7 % Extraction speed 7.0 X Track quality 100.0 % Test CRC 864B744D Copy CRC 864B744D Track not present in AccurateRip database Copy OK
Track 17
Filename C:\VA-Reverze_2014_Gardians_Of_Time-(TOFF040)-2CD-FLAC-2014-1nDD\(117) [Ran-D and B-Front] The Message.wav
Peak level 98.7 % Extraction speed 7.4 X Track quality 100.0 % Test CRC C7E897E0 Copy CRC C7E897E0 Track not present in AccurateRip database Copy OK
Track 18
Filename C:\VA-Reverze_2014_Gardians_Of_Time-(TOFF040)-2CD-FLAC-2014-1nDD\(118) [Zatox and Activator] Make Some Noise.wav
Peak level 98.7 % Extraction speed 7.4 X Track quality 100.0 % Test CRC 0F8FE4C3 Copy CRC 0F8FE4C3 Track not present in AccurateRip database Copy OK
Track 19
Filename C:\VA-Reverze_2014_Gardians_Of_Time-(TOFF040)-2CD-FLAC-2014-1nDD\(119) [Endymion and Pandorum Feat. Frankie McCoy] Under Your Skin.wav
Peak level 98.7 % Extraction speed 7.4 X Track quality 100.0 % Test CRC 6DBDDC06 Copy CRC 6DBDDC06 Track not present in AccurateRip database Copy OK
None of the tracks are present in the AccurateRip database
No errors occurred
End of status report
---- CUETools DB Plugin V2.1.3
[CTDB TOCID: 7tP3RvRk5rcmNe4YwclARgaSsIs-] disk not present in database, Submit result: 7tP3RvRk5rcmNe4YwclARgaSsIs- has been uploaded
==== Log checksum 1B33F6851C9C4855C8AA8D7F557A4BB216D22835255BD0A4FD927A51A460BA2A ====

Лог создания рипа CD2

Exact Audio Copy V1.0 beta 3 from 29. August 2011
EAC extraction logfile from 15. March 2014, 20:52
Various Artists / Reverze 2014: Guardians Of Time
Used drive : ASUS DRW-24B3ST Adapter: 1 ID: 1
Read mode : SecureUtilize accurate stream : YesDefeat audio cache : YesMake use of C2 pointers : No
Read offset correction : 6Overread into Lead-In and Lead-Out : NoFill up missing offset samples with silence : YesDelete leading and trailing silent blocks : NoNull samples used in CRC calculations : YesUsed interface : Native Win32 interface for Win NT & 2000Gap handling : Appended to previous track
Used output format : User Defined EncoderSelected bitrate : 1024 kBit/sQuality : HighAdd ID3 tag : NoCommand line compressor : C:\Program Files (x86)\Exact Audio Copy\Flac\flac.exeAdditional command line options : -8 -V -T "ARTIST=%artist%" -T "TITLE=%title%" -T "ALBUM=%albumtitle%" -T "DATE=%year%" -T "TRACKNUMBER=%tracknr%" -T "GENRE=%genre%" -T"PERFORMER=%albuminterpret%" -T "COMPOSER=%composer%" %haslyrics%--tag-from-file=LYRICS="%lyricsfile%"%haslyrics% -T "ALBUMARTIST=%albumartist%" -T "DISCNUMBER=%cdnumber%" -T "TOTALDISCS=%totalcds%" -T "TOTALTRACKS=%numtracks%" -T "COMMENT=%comment%" %source% -o %dest%
TOC of the extracted CD
Track | Start | Length | Start sector | End sector --------------------------------------------------------- 1 | 0:00.00 | 3:35.67 | 0 | 16191 2 | 3:35.67 | 2:20.62 | 16192 | 26753 3 | 5:56.54 | 2:39.74 | 26754 | 38752 4 | 8:36.53 | 2:27.15 | 38753 | 49792 5 | 11:03.68 | 2:48.00 | 49793 | 62392 6 | 13:51.68 | 4:54.29 | 62393 | 84471 7 | 18:46.22 | 4:54.30 | 84472 | 106551 8 | 23:40.52 | 5:13.46 | 106552 | 130072 9 | 28:54.23 | 3:00.45 | 130073 | 143617 10 | 31:54.68 | 4:09.60 | 143618 | 162352 11 | 36:04.53 | 3:37.45 | 162353 | 178672 12 | 39:42.23 | 3:24.60 | 178673 | 194032 13 | 43:07.08 | 3:42.28 | 194033 | 210710 14 | 46:49.36 | 4:00.57 | 210711 | 228767 15 | 50:50.18 | 3:31.18 | 228768 | 244610 16 | 54:21.36 | 5:04.01 | 244611 | 267411 17 | 59:25.37 | 4:03.15 | 267412 | 285651 18 | 63:28.52 | 4:01.44 | 285652 | 303770 19 | 67:30.21 | 3:34.31 | 303771 | 319851 20 | 71:04.52 | 3:48.06 | 319852 | 336957 21 | 74:52.58 | 3:24.73 | 336958 | 352330
Track 1
Filename C:\VA-Reverze_2014_Gardians_Of_Time-(TOFF040)-2CD-FLAC-2014-1nDD\(201) [Mark With A K] Krijg Ons Niet Stil (with Ruthless Feat. Mc Alee).wav
Pre-gap length 0:00:02.00
Peak level 98.7 % Extraction speed 2.1 X Track quality 99.8 % Test CRC 140FC52F Copy CRC AC5366D1 Track not present in AccurateRip database Copy OK
Track 2
Filename C:\VA-Reverze_2014_Gardians_Of_Time-(TOFF040)-2CD-FLAC-2014-1nDD\(202) [Davoodi] Bomsquad.wav
Peak level 98.7 % Extraction speed 3.6 X Track quality 100.0 % Test CRC CA989F57 Copy CRC CA989F57 Track not present in AccurateRip database Copy OK
Track 3
Filename C:\VA-Reverze_2014_Gardians_Of_Time-(TOFF040)-2CD-FLAC-2014-1nDD\(203) [Bestien] Dat Ass.wav
Peak level 98.7 % Extraction speed 3.0 X Track quality 99.9 % Test CRC 33A2BBB6 Copy CRC 33A2BBB6 Track not present in AccurateRip database Copy OK
Track 4
Filename C:\VA-Reverze_2014_Gardians_Of_Time-(TOFF040)-2CD-FLAC-2014-1nDD\(204) [Akyra] In The Dark (Demo Version).wav
Peak level 98.7 % Extraction speed 4.0 X Track quality 100.0 % Test CRC A42FA7C5 Copy CRC A42FA7C5 Track not present in AccurateRip database Copy OK
Track 5
Filename C:\VA-Reverze_2014_Gardians_Of_Time-(TOFF040)-2CD-FLAC-2014-1nDD\(205) [LNY TNZ and Demoniak] Loud Beats.wav
Peak level 98.7 % Extraction speed 3.3 X Track quality 99.9 % Test CRC 4B18BAF0 Copy CRC 4B18BAF0 Track not present in AccurateRip database Copy OK
Track 6
Filename C:\VA-Reverze_2014_Gardians_Of_Time-(TOFF040)-2CD-FLAC-2014-1nDD\(206) [Outlander] Transit.wav
Peak level 98.7 % Extraction speed 5.0 X Track quality 100.0 % Test CRC EDF99BDB Copy CRC EDF99BDB Track not present in AccurateRip database Copy OK
Track 7
Filename C:\VA-Reverze_2014_Gardians_Of_Time-(TOFF040)-2CD-FLAC-2014-1nDD\(207) [Neilio] And God Said 2k14.wav
Peak level 98.7 % Extraction speed 5.3 X Track quality 100.0 % Test CRC 73AF821D Copy CRC 73AF821D Track not present in AccurateRip database Copy OK
Track 8
Filename C:\VA-Reverze_2014_Gardians_Of_Time-(TOFF040)-2CD-FLAC-2014-1nDD\(208) [Darren Styles and Gammer] You and I (Da Tweekaz Remix).wav
Peak level 98.7 % Extraction speed 5.7 X Track quality 100.0 % Test CRC 049BD6AE Copy CRC 049BD6AE Track not present in AccurateRip database Copy OK
Track 9
Filename C:\VA-Reverze_2014_Gardians_Of_Time-(TOFF040)-2CD-FLAC-2014-1nDD\(209) [Code Black and Atmozfears] Starting Over.wav
Peak level 98.7 % Extraction speed 4.1 X Track quality 99.9 % Test CRC 45426C58 Copy CRC 45426C58 Track not present in AccurateRip database Copy OK
Track 10
Filename C:\VA-Reverze_2014_Gardians_Of_Time-(TOFF040)-2CD-FLAC-2014-1nDD\(210) [Wasted Penguinz and Chris One] I Miss You.wav
Peak level 98.7 % Extraction speed 6.0 X Track quality 100.0 % Test CRC F69ED844 Copy CRC F69ED844 Track not present in AccurateRip database Copy OK
Track 11
Filename C:\VA-Reverze_2014_Gardians_Of_Time-(TOFF040)-2CD-FLAC-2014-1nDD\(211) [Psyko Punkz, MC Lyte and Chris Willis] This Is Your Life.wav
Peak level 98.7 % Extraction speed 6.1 X Track quality 100.0 % Test CRC 9F5F81A1 Copy CRC 9F5F81A1 Track not present in AccurateRip database Copy OK
Track 12
Filename C:\VA-Reverze_2014_Gardians_Of_Time-(TOFF040)-2CD-FLAC-2014-1nDD\(212) [Coone and Hard Driver] Showtime.wav
Peak level 98.7 % Extraction speed 6.2 X Track quality 100.0 % Test CRC DD437993 Copy CRC DD437993 Track not present in AccurateRip database Copy OK
Track 13
Filename C:\VA-Reverze_2014_Gardians_Of_Time-(TOFF040)-2CD-FLAC-2014-1nDD\(213) [Brennan Heart] F.I.F.O. (Outbreak Remix).wav
Peak level 98.7 % Extraction speed 6.5 X Track quality 100.0 % Test CRC D57AD30E Copy CRC D57AD30E Track not present in AccurateRip database Copy OK
Track 14
Filename C:\VA-Reverze_2014_Gardians_Of_Time-(TOFF040)-2CD-FLAC-2014-1nDD\(214) [Digital Punk] Invasion.wav
Peak level 98.7 % Extraction speed 6.6 X Track quality 100.0 % Test CRC 40A371C4 Copy CRC 40A371C4 Track not present in AccurateRip database Copy OK
Track 15
Filename C:\VA-Reverze_2014_Gardians_Of_Time-(TOFF040)-2CD-FLAC-2014-1nDD\(215) [Phuture Noize] Wrong Attitude.wav
Peak level 98.7 % Extraction speed 6.6 X Track quality 100.0 % Test CRC 9405C16B Copy CRC 9405C16B Track not present in AccurateRip database Copy OK
Track 16
Filename C:\VA-Reverze_2014_Gardians_Of_Time-(TOFF040)-2CD-FLAC-2014-1nDD\(216) [Zatox and Hit N Run] Never More.wav
Peak level 98.7 % Extraction speed 7.2 X Track quality 100.0 % Test CRC 24282F50 Copy CRC 24282F50 Track not present in AccurateRip database Copy OK
Track 17
Filename C:\VA-Reverze_2014_Gardians_Of_Time-(TOFF040)-2CD-FLAC-2014-1nDD\(217) [DJ Mad Dog] The Memory Disappears (Adaro Remix).wav
Peak level 98.7 % Extraction speed 7.2 X Track quality 100.0 % Test CRC 1581957E Copy CRC 1581957E Track not present in AccurateRip database Copy OK
Track 18
Filename C:\VA-Reverze_2014_Gardians_Of_Time-(TOFF040)-2CD-FLAC-2014-1nDD\(218) [Frontliner] Death Of A Demon (B-Front Remix).wav
Peak level 98.7 % Extraction speed 7.3 X Track quality 100.0 % Test CRC 176ADE9C Copy CRC 176ADE9C Track not present in AccurateRip database Copy OK
Track 19
Filename C:\VA-Reverze_2014_Gardians_Of_Time-(TOFF040)-2CD-FLAC-2014-1nDD\(219) [Radical Redemption and Frequencerz] Insanity.wav
Peak level 98.7 % Extraction speed 7.4 X Track quality 100.0 % Test CRC 4D56E3A3 Copy CRC 4D56E3A3 Track not present in AccurateRip database Copy OK
Track 20
Filename C:\VA-Reverze_2014_Gardians_Of_Time-(TOFF040)-2CD-FLAC-2014-1nDD\(220) [Art Of Fighters] Fuck You.wav
Peak level 98.7 % Extraction speed 6.6 X Track quality 99.9 % Test CRC 9755F003 Copy CRC 9755F003 Track not present in AccurateRip database Copy OK
Track 21
Filename C:\VA-Reverze_2014_Gardians_Of_Time-(TOFF040)-2CD-FLAC-2014-1nDD\(221) [Tieum and Angerfist] Dirty Man.wav
Peak level 98.7 % Extraction speed 7.7 X Track quality 100.0 % Test CRC FD95EE16 Copy CRC FD95EE16 Track not present in AccurateRip database Copy OK
None of the tracks are present in the AccurateRip database
No errors occurred
End of status report
---- CUETools DB Plugin V2.1.3
[CTDB TOCID: TipnXg6SMqe.Wj2hZilQT3D_xsM-] disk not present in database, Submit result: insufficient quality
==== Log checksum E5FF5E0A890254A6AFD1F8F73C83E899256BEF6D873644A9B02BB333B00A6918 ====

Содержание индексной карты (.CUE) CD1

REM GENRE HardstyleREM DATE 2014REM DISCID FE11B313REM COMMENT "ExactAudioCopy v1.0b3"CATALOG 5425007459401PERFORMER "Various Artists"TITLE "Reverze 2014: Guardians Of Time"FILE "(101) [Audiofreq] Guardians Of Time (Reverze 2014 Anthem).wav" WAVE TRACK 01 AUDIO TITLE "Guardians Of Time (Reverze 2014 Anthem)" PERFORMER "Audiofreq" ISRC BEB681400034 INDEX 01 00:00:00FILE "(102) [Isaac and F8trix] Groupie Love (150 Mix).wav" WAVE TRACK 02 AUDIO TITLE "Groupie Love (150 Mix)" PERFORMER "Isaac & F8trix" ISRC BEK011400005 INDEX 01 00:00:00FILE "(103) [Outlander] Telepathy.wav" WAVE TRACK 03 AUDIO TITLE "Telepathy" PERFORMER "Outlander" ISRC BEB681300741 INDEX 01 00:00:00FILE "(104) [D-Block and S-Te-Fan] Built This City.wav" WAVE TRACK 04 AUDIO TITLE "Built This City" PERFORMER "D-Block & S-Te-Fan" ISRC NLE801300560 INDEX 01 00:00:00FILE "(105) [Audiofreq] The Gospel.wav" WAVE TRACK 05 AUDIO TITLE "The Gospel" PERFORMER "Audiofreq" ISRC BEB681300564 INDEX 01 00:00:00FILE "(106) [Waverider] For The Music.wav" WAVE TRACK 06 AUDIO TITLE "For The Music" PERFORMER "Waverider" ISRC NLS761300269 INDEX 01 00:00:00FILE "(107) [Phuture Noize Feat. MC DL] Fadin (Atmozfears Remix).wav" WAVE TRACK 07 AUDIO TITLE "Fadin' (Atmozfears Remix)" PERFORMER "Phuture Noize Feat. MC DL" ISRC BEB681300537 INDEX 01 00:00:00FILE "(108) [Da Tweekaz Feat. MC V] Zero Fucks Given.wav" WAVE TRACK 08 AUDIO TITLE "Zero Fucks Given" PERFORMER "Da Tweekaz Feat. MC V" ISRC BEB681400035 INDEX 01 00:00:00FILE "(109) [Ran-D and Hard Driver] Animals.wav" WAVE TRACK 09 AUDIO TITLE "Animals" PERFORMER "Ran-D & Hard Driver" ISRC NLS761400001 INDEX 01 00:00:00FILE "(110) [Technoboy] Wargames.wav" WAVE TRACK 10 AUDIO TITLE "Wargames" PERFORMER "Technoboy" ISRC ITC941301618 INDEX 01 00:00:00FILE "(111) [Audiofreq] Desire.wav" WAVE TRACK 11 AUDIO TITLE "Desire" PERFORMER "Audiofreq" ISRC BEB681300561 INDEX 01 00:00:00FILE "(112) [D-Block and S-Te-Fan] Next Level.wav" WAVE TRACK 12 AUDIO TITLE "Next Level" PERFORMER "D-Block & S-Te-Fan" ISRC NLS761300216 INDEX 01 00:00:00FILE "(113) [Tuneboy Feat. Soleo] Six.wav" WAVE TRACK 13 AUDIO TITLE "Six" PERFORMER "Tuneboy Feat. Soleo" ISRC ITC941301484 INDEX 01 00:00:00FILE "(114) [Neilio and Omegatypez] Robotronic.wav" WAVE TRACK 14 AUDIO TITLE "Robotronic" PERFORMER "Neilio & Omegatypez" ISRC BEB681300644 INDEX 01 00:00:00FILE "(115) [Brennan Heart and Zatox] Fight The Resistance.wav" WAVE TRACK 15 AUDIO TITLE "Fight The Resistance" PERFORMER "Brennan Heart & Zatox" ISRC NLE801300438 INDEX 01 00:00:00FILE "(116) [Coone and Frontliner] World Domination.wav" WAVE TRACK 16 AUDIO TITLE "World Domination" PERFORMER "Coone & Frontliner" ISRC BEB681300684 INDEX 01 00:00:00FILE "(117) [Ran-D and B-Front] The Message.wav" WAVE TRACK 17 AUDIO TITLE "The Message" PERFORMER "Ran-D & B-Front" ISRC NLS761300165 INDEX 01 00:00:00FILE "(118) [Zatox and Activator] Make Some Noise.wav" WAVE TRACK 18 AUDIO TITLE "Make Some Noise" PERFORMER "Zatox & Activator" ISRC BEB681300551 INDEX 01 00:00:00FILE "(119) [Endymion and Pandorum Feat. Frankie McCoy] Under Your Skin.wav" WAVE TRACK 19 AUDIO TITLE "Under Your Skin" PERFORMER "Endymion & Pandorum Feat. Frankie McCoy" ISRC NLQS91300132 INDEX 01 00:00:00

Содержание индексной карты (.CUE) CD2

REM GENRE HardstyleREM DATE 2014REM DISCID 30125915REM COMMENT "ExactAudioCopy v1.0b3"CATALOG 5425007459401PERFORMER "Various Artists"TITLE "Reverze 2014: Guardians Of Time"FILE "(201) [Mark With A K] Krijg Ons Niet Stil (with Ruthless Feat. Mc Alee).wav" WAVE TRACK 01 AUDIO TITLE "Krijg Ons Niet Stil (with Ruthless Feat. Mc Alee)" PERFORMER "Mark With A K" ISRC BEB681300709 INDEX 01 00:00:00FILE "(202) [Davoodi] Bomsquad.wav" WAVE TRACK 02 AUDIO TITLE "Bomsquad" PERFORMER "Davoodi" ISRC BEB681400014 INDEX 01 00:00:00FILE "(203) [Bestien] Dat Ass.wav" WAVE TRACK 03 AUDIO TITLE "Dat Ass" PERFORMER "Bestien" ISRC BEB681400039 INDEX 01 00:00:00FILE "(204) [Akyra] In The Dark (Demo Version).wav" WAVE TRACK 04 AUDIO TITLE "In The Dark (Demo Version)" PERFORMER "Akyra" ISRC BEB681400001 INDEX 01 00:00:00FILE "(205) [LNY TNZ and Demoniak] Loud Beats.wav" WAVE TRACK 05 AUDIO TITLE "Loud Beats" PERFORMER "LNY TNZ & Demoniak" ISRC BEB681400036 INDEX 01 00:00:00FILE "(206) [Outlander] Transit.wav" WAVE TRACK 06 AUDIO TITLE "Transit" PERFORMER "Outlander" ISRC BEB681400038 INDEX 01 00:00:00FILE "(207) [Neilio] And God Said 2k14.wav" WAVE TRACK 07 AUDIO TITLE "And God Said 2k14" PERFORMER "Neilio" ISRC BEB681400037 INDEX 01 00:00:00FILE "(208) [Darren Styles and Gammer] You and I (Da Tweekaz Remix).wav" WAVE TRACK 08 AUDIO TITLE "You & I (Da Tweekaz Remix)" PERFORMER "Darren Styles & Gammer" ISRC BEB681300749 INDEX 01 00:00:00FILE "(209) [Code Black and Atmozfears] Starting Over.wav" WAVE TRACK 09 AUDIO TITLE "Starting Over" PERFORMER "Code Black & Atmozfears" ISRC NLE801400009 INDEX 01 00:00:00FILE "(210) [Wasted Penguinz and Chris One] I Miss You.wav" WAVE TRACK 10 AUDIO TITLE "I Miss You" PERFORMER "Wasted Penguinz & Chris One" ISRC BEB681300584 INDEX 01 00:00:00FILE "(211) [Psyko Punkz, MC Lyte and Chris Willis] This Is Your Life.wav" WAVE TRACK 11 AUDIO TITLE "This Is Your Life" PERFORMER "Psyko Punkz, MC Lyte and Chris Willis" ISRC NLZ291400008 INDEX 01 00:00:00FILE "(212) [Coone and Hard Driver] Showtime.wav" WAVE TRACK 12 AUDIO TITLE "Showtime" PERFORMER "Coone & Hard Driver" ISRC BEB681300685 INDEX 01 00:00:00FILE "(213) [Brennan Heart] F.I.F.O. (Outbreak Remix).wav" WAVE TRACK 13 AUDIO TITLE "F.I.F.O. (Outbreak Remix)" PERFORMER "Brennan Heart" ISRC NLE801300528 INDEX 01 00:00:00FILE "(214) [Digital Punk] Invasion.wav" WAVE TRACK 14 AUDIO TITLE "Invasion" PERFORMER "Digital Punk" ISRC NLS761300144 INDEX 01 00:00:00FILE "(215) [Phuture Noize] Wrong Attitude.wav" WAVE TRACK 15 AUDIO TITLE "Wrong Attitude" PERFORMER "Phuture Noize" ISRC BEB681300748 INDEX 01 00:00:00FILE "(216) [Zatox and Hit N Run] Never More.wav" WAVE TRACK 16 AUDIO TITLE "Never More" PERFORMER "Zatox & Hit 'N' Run" ISRC BEB681300550 INDEX 01 00:00:00FILE "(217) [DJ Mad Dog] The Memory Disappears (Adaro Remix).wav" WAVE TRACK 17 AUDIO TITLE "The Memory Disappears (Adaro Remix)" PERFORMER "DJ Mad Dog" ISRC ITD131301058 INDEX 01 00:00:00FILE "(218) [Frontliner] Death Of A Demon (B-Front Remix).wav" WAVE TRACK 18 AUDIO TITLE "Death Of A Demon (B-Front Remix)" PERFORMER "Frontliner" ISRC NLE801300596 INDEX 01 00:00:00FILE "(219) [Radical Redemption and Frequencerz] Insanity.wav" WAVE TRACK 19 AUDIO TITLE "Insanity" PERFORMER "Radical Redemption & Frequencerz" ISRC NLS241204226 INDEX 01 00:00:00FILE "(220) [Art Of Fighters] Fuck You.wav" WAVE TRACK 20 AUDIO TITLE "Fuck You!" PERFORMER "Art Of Fighters" ISRC ITD131301002 INDEX 01 00:00:00FILE "(221) [Tieum and Angerfist] Dirty Man.wav" WAVE TRACK 21 AUDIO TITLE "Dirty Man" PERFORMER "Tieum & Angerfist" ISRC NLQS91300128 INDEX 01 00:00:00

Лог проверки качества

-----------------------
DON'T MODIFY THIS FILE
-----------------------
PERFORMER: auCDtect Task Manager, ver. 1.6.0 RC1 build 1.6.0.1Copyright (c) 2008-2010 y-soft. All rights reservedy-soft.org
ANALYZER: auCDtect: CD records authenticity detector, version 0.8.2Copyright (c) 2004 Oleg Berngardt. All rights reserved.Copyright (c) 2004 Alexander Djourik. All rights reserved.
FILE: (221) [Tieum and Angerfist] Dirty Man.flac Size: 27776730 Hash: D3212F84F5F4B2F1397E2874D11ED143 Accuracy: -m0 Conclusion: CDDA 100% Signature: A2303973C2A6696B5D58122A43CA811AF3FEA80EFILE: (220) [Art Of Fighters] Fuck You.flac Size: 31959923 Hash: D2BEB7F4652980854EBA2D6AFCC4D6C8 Accuracy: -m0 Conclusion: CDDA 100% Signature: 66C0E9B594404E1A636C7B83AF36B490D89A5E73FILE: (219) [Radical Redemption and Frequencerz] Insanity.flac Size: 26649755 Hash: 0A431DA16B3C923E8B98BDE84D59B8F2 Accuracy: -m0 Conclusion: CDDA 100% Signature: 748659CA48B0F7956B8127018BAFF05DB96D0244FILE: (218) [Frontliner] Death Of A Demon (B-Front Remix).flac Size: 33080633 Hash: 64267CEA3C0EFD3BAFBF666CF8C508AF Accuracy: -m0 Conclusion: CDDA 100% Signature: C56820197BCA0DD7A8F4391249B70B103A6151FEFILE: (217) [DJ Mad Dog] The Memory Disappears (Adaro Remix).flac Size: 34118154 Hash: 2F750961C53326B3D133074C91571E08 Accuracy: -m0 Conclusion: CDDA 100% Signature: D4FDA9543DE93A95E6F23EDEC727066F68CDB62DFILE: (216) [Zatox and Hit N Run] Never More.flac Size: 41112594 Hash: 014263323201CFC72ECC52DB5CE02ECF Accuracy: -m0 Conclusion: CDDA 100% Signature: 56C201425F36D9873DF83F55D68CA96BD6167E95FILE: (215) [Phuture Noize] Wrong Attitude.flac Size: 28593743 Hash: E8FE32B0415DD1CDC418BEC23AEA6E56 Accuracy: -m0 Conclusion: CDDA 99% Signature: ABD39E115C2B29FA2BFD338B41F1F089F3C46376FILE: (214) [Digital Punk] Invasion.flac Size: 33515427 Hash: 1C443FD1A5369AC419D80001ABC900A3 Accuracy: -m0 Conclusion: CDDA 99% Signature: 6714D7C9846FB5EE5FFC1166C783F25232B1C2E4FILE: (213) [Brennan Heart] F.I.F.O. (Outbreak Remix).flac Size: 29763501 Hash: B550BB07DFD1B54E31E3DDCFDC82FD08 Accuracy: -m0 Conclusion: CDDA 100% Signature: ED7C6E6538D578C8F37F581EC6121210769AE65CFILE: (212) [Coone and Hard Driver] Showtime.flac Size: 29420091 Hash: F390E696D0D9A79D6D967BD6688A4500 Accuracy: -m0 Conclusion: CDDA 100% Signature: D78582F663872AF24F9D309C8233C7A278BCC77FFILE: (211) [Psyko Punkz, MC Lyte and Chris Willis] This Is Your Life.flac Size: 30302768 Hash: ED528D46639CB6E5FCCDBDB453FFC7BF Accuracy: -m0 Conclusion: CDDA 100% Signature: 7D85C1222CC152D59289CC5A0A24677DF355DC99FILE: (210) [Wasted Penguinz and Chris One] I Miss You.flac Size: 33506795 Hash: 9C37C080BFEBE311802B4736009A762D Accuracy: -m0 Conclusion: CDDA 100% Signature: D5E9581EA9A2DE7DFDFD8DCC58DDD10E1EFB74A3FILE: (209) [Code Black and Atmozfears] Starting Over.flac Size: 24250837 Hash: 23C5F76CCC7A9AEDB9F1ECB832DA41AA Accuracy: -m0 Conclusion: CDDA 100% Signature: E1F47DC9395C159E3F20588CAC3F351C4D0A3C4FFILE: (208) [Darren Styles and Gammer] You and I (Da Tweekaz Remix).flac Size: 43490101 Hash: 29EE6B94B35C4AB1E438C5AC76142469 Accuracy: -m0 Conclusion: CDDA 100% Signature: BF49EF9B4E91C5F404928B01AEABB41898677408FILE: (207) [Neilio] And God Said 2k14.flac Size: 40346298 Hash: B908539E2CA4312CA99D087B979BB05C Accuracy: -m0 Conclusion: CDDA 100% Signature: A432C3F5150A2E55E0CE3647F9FE1CEC35258675FILE: (206) [Outlander] Transit.flac Size: 37581528 Hash: 0CA56CD2E64A3C7CCCF4DE859E84E154 Accuracy: -m0 Conclusion: CDDA 100% Signature: B4B2C6BA562FCB539CD7565B251D282E4508F03DFILE: (205) [LNY TNZ and Demoniak] Loud Beats.flac Size: 23331652 Hash: 3DB498E018A6C8EC2B91DEF3AD9E4CB6 Accuracy: -m0 Conclusion: CDDA 100% Signature: 810811BA4611D7967676FD3015FD36C1C6230540FILE: (204) [Akyra] In The Dark (Demo Version).flac Size: 20227708 Hash: 917CEF5BF45288AC6491158212A98BFF Accuracy: -m0 Conclusion: CDDA 100% Signature: F1914FA0F63F6F0BAE66150C44862BF0C9DBB77BFILE: (203) [Bestien] Dat Ass.flac Size: 21408209 Hash: BDAAEB5DB7E38D1E5AFB802A4E68C002 Accuracy: -m0 Conclusion: CDDA 100% Signature: C05E9E84528579897FF4100A3FD290454C69FCD2FILE: (202) [Davoodi] Bomsquad.flac Size: 16307271 Hash: 8179A53632E5DED6BD066D18130E2502 Accuracy: -m0 Conclusion: CDDA 100% Signature: 97E3E1242B96E6096727CB43B8CD5C2AACB53A58FILE: (201) [Mark With A K] Krijg Ons Niet Stil (with Ruthless Feat. Mc Alee).flac Size: 29649020 Hash: CBE1DFAB969FE97C510B2E691FC669DA Accuracy: -m0 Conclusion: CDDA 99% Signature: 32A2F4CA7D5F2DEC6F32BF5281921E84A27ED71DFILE: (119) [Endymion and Pandorum Feat. Frankie McCoy] Under Your Skin.flac Size: 29943713 Hash: 2F2411BF4BC22DD7ED2742B1F78C74A7 Accuracy: -m0 Conclusion: CDDA 100% Signature: 81B42210647307048714112072C3FF54E4320F69FILE: (118) [Zatox and Activator] Make Some Noise.flac Size: 37036146 Hash: 2AE3F83DF5BFDFE2C47715815296EDF3 Accuracy: -m0 Conclusion: CDDA 100% Signature: 1158C2B6691F682C43D30D739F54C01694318713FILE: (117) [Ran-D and B-Front] The Message.flac Size: 37907892 Hash: D64EF31B39C6BF7CE94686CE2631BE32 Accuracy: -m0 Conclusion: CDDA 100% Signature: 6DC8AB01D3429CBF2EEAC642A39899FC9CC99909FILE: (116) [Coone and Frontliner] World Domination.flac Size: 34044192 Hash: 5ECAE3373CECD086895571476AC3A46C Accuracy: -m0 Conclusion: CDDA 100% Signature: C863530EF7FBAFE538D81EFACDF315E59B66AECDFILE: (115) [Brennan Heart and Zatox] Fight The Resistance.flac Size: 31152884 Hash: 3CDAB6264BF5C2F3380B4C44372F5989 Accuracy: -m0 Conclusion: CDDA 100% Signature: 1DA7A1C3CEC19342B11833652E8C0B428FF894EAFILE: (114) [Neilio and Omegatypez] Robotronic.flac Size: 30409228 Hash: DD408F97CB10A27797B5C29434C52DE9 Accuracy: -m0 Conclusion: CDDA 100% Signature: 1AE39EC93D5F63372B78CCB7DD9E67642BEB66ABFILE: (113) [Tuneboy Feat. Soleo] Six.flac Size: 22453979 Hash: E3A1928182972CB10E4C9CE08EC95C7E Accuracy: -m0 Conclusion: CDDA 100% Signature: 330CDACD8073520F3AE79D2D2883704620C79D5BFILE: (112) [D-Block and S-Te-Fan] Next Level.flac Size: 34762058 Hash: 3C72950AB184D99CB27FEB9EA395585D Accuracy: -m0 Conclusion: CDDA 100% Signature: DB5CF886954AF8FB913F30FC9EE4447FE3C45B86FILE: (111) [Audiofreq] Desire.flac Size: 36805756 Hash: 69764C97F76D393D7E53271DC70AA061 Accuracy: -m0 Conclusion: CDDA 100% Signature: A17DBFC21AD6CE0608CB8A7E1DCA19AD60D1EAE5FILE: (110) [Technoboy] Wargames.flac Size: 35840649 Hash: 0F86AA7D82291F3CB8B9545D850DBF08 Accuracy: -m0 Conclusion: CDDA 100% Signature: DCBC3EF88989CE7F332F02CD3B7549225F1D99CFFILE: (109) [Ran-D and Hard Driver] Animals.flac Size: 39282642 Hash: CA5FA094CBFDDA8BC7ED01586F7A1D19 Accuracy: -m0 Conclusion: CDDA 100% Signature: E8F77C4838A702665AB115807816B51C2DD20666FILE: (108) [Da Tweekaz Feat. MC V] Zero Fucks Given.flac Size: 36783963 Hash: 71D75F95C541F0D5068477DAAB1D44FD Accuracy: -m0 Conclusion: CDDA 100% Signature: 0C11E6803302F2D6022D5D32E9EBAF6DFC01723BFILE: (107) [Phuture Noize Feat. MC DL] Fadin (Atmozfears Remix).flac Size: 39815905 Hash: ACF3D97D4A24449F6CC157017A1DDA7A Accuracy: -m0 Conclusion: CDDA 100% Signature: 8D9A4A3CADC469B618FF7374A30B31D42FA13708FILE: (106) [Waverider] For The Music.flac Size: 28172497 Hash: A85B21D0FBC0A3EFC2FC8F9EE54A03E8 Accuracy: -m0 Conclusion: CDDA 100% Signature: E210C14054C80FE7A09FA3B0DFD56BD0B48AE30BFILE: (105) [Audiofreq] The Gospel.flac Size: 29044551 Hash: A023B934A384E0556EF7A2AB347906C8 Accuracy: -m0 Conclusion: CDDA 100% Signature: 5C23D19E2E52230964553D8BE885F05DCFA8BB88FILE: (104) [D-Block and S-Te-Fan] Built This City.flac Size: 25577581 Hash: B2EB4BEF40C04F8A86F1049531BA91CE Accuracy: -m0 Conclusion: CDDA 100% Signature: 0E4D3615D2C7A1D68009E4526AA8749437A5A417FILE: (103) [Outlander] Telepathy.flac Size: 34242827 Hash: 25658FDB03A1A0E2CCE23FA804FD0741 Accuracy: -m0 Conclusion: CDDA 100% Signature: 00EA74B9666D39D3371BDACE9DCBD438EE67785FFILE: (102) [Isaac and F8trix] Groupie Love (150 Mix).flac Size: 28040615 Hash: FBBDBB820D80493C67A27D02A9EF06AF Accuracy: -m0 Conclusion: CDDA 100% Signature: 8FF50C8DFCDA3E2479477CAEBD015244D35C1E13FILE: (101) [Audiofreq] Guardians Of Time (Reverze 2014 Anthem).flac Size: 36986462 Hash: EA28E4DCA30594A104BEDCDB4394E844 Accuracy: -m0 Conclusion: CDDA 100% Signature: C44B8B1B49A92C8580CC548525D09699EBB9A5AC

_________________
Показать сообщения:    

Текущее время: Сегодня 08:48

Часовой пояс: GMT



Вы не можете начинать темы
Вы не можете отвечать на сообщения
Вы не можете редактировать свои сообщения
Вы не можете удалять свои сообщения
Вы не можете голосовать в опросах
Вы не можете прикреплять файлы к сообщениям
Вы не можете скачивать файлы