Важное объявление!
У Нас Все раздачи мультитрекерные, при нуле пиров в релизах, можете смело вставать на закачку!
 
Автор Сообщение

HUNTER

Стаж:
4 года 7 месяцев
Сообщений:
61500

Репутация: 101

[+] [-]
Вне форума [Профиль] [ЛС]

Mix 01: ID&T Presents Dana
Жанр: Hardstyle, Hardtrance
Год издания: 2002
Издатель (лейбл): ID&T
Номер по каталогу: 7005632
Аудиокодек: FLAC (*.flac)
Тип рипа: tracks+.cue
Битрейт аудио: lossless
Продолжительность: 75:48
Источник (релизер): what.cd (dr0kz)
Треклист:
01. Miss Peppermint - Back In Time
02. Hunter - The Hammer
03. Kyau vs. Albert - Save Me (Derb Mix)
04. Marc Et Claude - Loving You (DJ Isaac Mix)
05. DJ Tom-X - Cocaine
06. Unit 4 - The Ultimate
07. Geal - Losing My Feeling (The Beholder & Balistic Remix)
08. DJ Zemtec - Bring Me Ur Silence (Gary D Remix)
09. Pacific Link - Rings Of Jupiter
10. Deepack - 100%
11. Hardstyle Masterz - Age Of Reverse Bass
12. DJ Zany - P.L.O.R.K.
13. Hardheadz - Wreck This Place
14. ZX - Scream
15. Ard Und Jorn - 16

Лог создания рипа

Exact Audio Copy V1.0 beta 3 from 29. August 2011
EAC extraction logfile from 14. April 2012, 13:16
Various Artists / ID&T Presents Lady Dana
Used drive : JLMS DVD-ROM LTD-166S Adapter: 0 ID: 1
Read mode : SecureUtilize accurate stream : YesDefeat audio cache : YesMake use of C2 pointers : No
Read offset correction : 12Overread into Lead-In and Lead-Out : NoFill up missing offset samples with silence : YesDelete leading and trailing silent blocks : NoNull samples used in CRC calculations : YesUsed interface : Native Win32 interface for Win NT & 2000Gap handling : Appended to previous track
Used output format : User Defined EncoderSelected bitrate : 1024 kBit/sQuality : HighAdd ID3 tag : NoCommand line compressor : C:\Program Files (x86)\FLAC\flac.exeAdditional command line options : -8 -V -T "ARTIST=%artist%" -T "TITLE=%title%" -T "ALBUM=%albumtitle%" -T "DATE=%year%" -T "TRACKNUMBER=%tracknr%" -T "GENRE=%genre%" -T "PERFORMER=%albuminterpret%" -T "COMPOSER=%composer%" %haslyrics%--tag-from-file=LYRICS="%lyricsfile%"%haslyrics% -T "ALBUMARTIST=%albumartist%" -T "DISCNUMBER=%cdnumber%" -T "TOTALDISCS=%totalcds%" -T "TOTALTRACKS=%numtracks%" -T "COMMENT=%comment%" %source% -o %dest%
TOC of the extracted CD
Track | Start | Length | Start sector | End sector --------------------------------------------------------- 1 | 0:00.00 | 5:13.29 | 0 | 23503 2 | 5:13.29 | 6:16.33 | 23504 | 51736 3 | 11:29.62 | 4:42.39 | 51737 | 72925 4 | 16:12.26 | 4:38.74 | 72926 | 93849 5 | 20:51.25 | 3:18.46 | 93850 | 108745 6 | 24:09.71 | 6:16.48 | 108746 | 136993 7 | 30:26.44 | 4:56.03 | 136994 | 159196 8 | 35:22.47 | 5:02.46 | 159197 | 181892 9 | 40:25.18 | 5:27.64 | 181893 | 206481 10 | 45:53.07 | 6:13.69 | 206482 | 234525 11 | 52:07.01 | 5:45.04 | 234526 | 260404 12 | 57:52.05 | 4:18.09 | 260405 | 279763 13 | 62:10.14 | 5:18.15 | 279764 | 303628 14 | 67:28.29 | 5:28.07 | 303629 | 328235 15 | 72:56.36 | 2:51.38 | 328236 | 341098
Track 1
Filename C:\EAC Rips\Various Artists - ID&T Presents Lady Dana (2002) [FLAC] {ID&T – 7005632}\01 - Miss Peppermint - Back in Time.wav
Pre-gap length 0:00:02.00
Peak level 96.6 % Extraction speed 5.4 X Track quality 99.9 % Test CRC F6DF7E7F Copy CRC F6DF7E7F Track not present in AccurateRip database Copy OK
Track 2
Filename C:\EAC Rips\Various Artists - ID&T Presents Lady Dana (2002) [FLAC] {ID&T – 7005632}\02 - Hunter - The Hammer.wav
Peak level 96.6 % Extraction speed 7.0 X Track quality 100.0 % Test CRC 5D7FFBAE Copy CRC 5D7FFBAE Track not present in AccurateRip database Copy OK
Track 3
Filename C:\EAC Rips\Various Artists - ID&T Presents Lady Dana (2002) [FLAC] {ID&T – 7005632}\03 - Kyau & Albert - Save Me (Derb mix).wav
Peak level 96.6 % Extraction speed 6.4 X Track quality 99.9 % Test CRC 15F3CB3E Copy CRC 15F3CB3E Track not present in AccurateRip database Copy OK
Track 4
Filename C:\EAC Rips\Various Artists - ID&T Presents Lady Dana (2002) [FLAC] {ID&T – 7005632}\04 - Marc et Claude - Loving You.wav
Peak level 96.6 % Extraction speed 7.9 X Track quality 100.0 % Test CRC 7AAB7B16 Copy CRC 7AAB7B16 Track not present in AccurateRip database Copy OK
Track 5
Filename C:\EAC Rips\Various Artists - ID&T Presents Lady Dana (2002) [FLAC] {ID&T – 7005632}\05 - DJ Tom-X - Cocaine.wav
Peak level 96.6 % Extraction speed 8.0 X Track quality 100.0 % Test CRC 00A146E7 Copy CRC 00A146E7 Track not present in AccurateRip database Copy OK
Track 6
Filename C:\EAC Rips\Various Artists - ID&T Presents Lady Dana (2002) [FLAC] {ID&T – 7005632}\06 - Unit 4 - The Ultimate.wav
Peak level 96.6 % Extraction speed 9.0 X Track quality 100.0 % Test CRC 82025F7C Copy CRC 82025F7C Track not present in AccurateRip database Copy OK
Track 7
Filename C:\EAC Rips\Various Artists - ID&T Presents Lady Dana (2002) [FLAC] {ID&T – 7005632}\07 - Geal - Losing My Feelin (The Beholder & Balistic remix).wav
Peak level 96.6 % Extraction speed 9.2 X Track quality 100.0 % Test CRC D5E5A706 Copy CRC D5E5A706 Track not present in AccurateRip database Copy OK
Track 8
Filename C:\EAC Rips\Various Artists - ID&T Presents Lady Dana (2002) [FLAC] {ID&T – 7005632}\08 - DJ Zemtec - Bring Me Your Silence (Gary D remix).wav
Peak level 96.6 % Extraction speed 9.7 X Track quality 100.0 % Test CRC D5F41B68 Copy CRC D5F41B68 Track not present in AccurateRip database Copy OK
Track 9
Filename C:\EAC Rips\Various Artists - ID&T Presents Lady Dana (2002) [FLAC] {ID&T – 7005632}\09 - Pacific Link - Rings of Jupiter.wav
Peak level 96.6 % Extraction speed 10.2 X Track quality 100.0 % Test CRC 74D0E42D Copy CRC 74D0E42D Track not present in AccurateRip database Copy OK
Track 10
Filename C:\EAC Rips\Various Artists - ID&T Presents Lady Dana (2002) [FLAC] {ID&T – 7005632}\10 - Deepack - 100%.wav
Peak level 96.6 % Extraction speed 10.8 X Track quality 100.0 % Test CRC 2C9CDC29 Copy CRC 2C9CDC29 Track not present in AccurateRip database Copy OK
Track 11
Filename C:\EAC Rips\Various Artists - ID&T Presents Lady Dana (2002) [FLAC] {ID&T – 7005632}\11 - Hardstyle Masterz - Age of Reverse Bass.wav
Peak level 96.6 % Extraction speed 11.2 X Track quality 100.0 % Test CRC 38D1FDCC Copy CRC 38D1FDCC Track not present in AccurateRip database Copy OK
Track 12
Filename C:\EAC Rips\Various Artists - ID&T Presents Lady Dana (2002) [FLAC] {ID&T – 7005632}\12 - DJ Zany - P.L.O.R.K.wav
Peak level 96.6 % Extraction speed 11.2 X Track quality 100.0 % Test CRC 28E2EB0B Copy CRC 28E2EB0B Track not present in AccurateRip database Copy OK
Track 13
Filename C:\EAC Rips\Various Artists - ID&T Presents Lady Dana (2002) [FLAC] {ID&T – 7005632}\13 - Hardheadz - Wreck Thiz Place.wav
Peak level 96.6 % Extraction speed 11.6 X Track quality 100.0 % Test CRC 7B4FCAE2 Copy CRC 7B4FCAE2 Track not present in AccurateRip database Copy OK
Track 14
Filename C:\EAC Rips\Various Artists - ID&T Presents Lady Dana (2002) [FLAC] {ID&T – 7005632}\14 - ZX aka Zenith vs Avex - Scream.wav
Peak level 96.6 % Extraction speed 10.4 X Track quality 100.0 % Test CRC 9DC6756A Copy CRC 9DC6756A Track not present in AccurateRip database Copy OK
Track 15
Filename C:\EAC Rips\Various Artists - ID&T Presents Lady Dana (2002) [FLAC] {ID&T – 7005632}\15 - Ard und Jorn - 16.wav
Peak level 96.6 % Extraction speed 11.3 X Track quality 100.0 % Test CRC FCFA5395 Copy CRC FCFA5395 Track not present in AccurateRip database Copy OK
None of the tracks are present in the AccurateRip database
No errors occurred
End of status report
---- CUETools DB Plugin V2.1.3
[CTDB TOCID: SWLfXmlhsTe9VeMBUwt7mA1Q1GU-] disk not present in database, Submit result: SWLfXmlhsTe9VeMBUwt7mA1Q1GU- has been uploaded
==== Log checksum CE4C4A3964EBEC1CA4E1E8E7F0A388C45CEF733F3B6D0CD9EBC0BDA77AAA7FD8 ====

Содержание индексной карты (.CUE)

REM GENRE ElectronicREM DATE 2002REM DISCID D211C30FREM COMMENT "ExactAudioCopy v1.0b3"PERFORMER "Various Artists"TITLE "ID&T Presents Lady Dana"FILE "01 - Miss Peppermint - Back in Time.wav" WAVE TRACK 01 AUDIO TITLE "Back in Time" PERFORMER "Miss Peppermint" INDEX 01 00:00:00FILE "02 - Hunter - The Hammer.wav" WAVE TRACK 02 AUDIO TITLE "The Hammer" PERFORMER "Hunter" INDEX 01 00:00:00FILE "03 - Kyau & Albert - Save Me (Derb mix).wav" WAVE TRACK 03 AUDIO TITLE "Save Me (Derb mix)" PERFORMER "Kyau & Albert" INDEX 01 00:00:00FILE "04 - Marc et Claude - Loving You.wav" WAVE TRACK 04 AUDIO TITLE "Loving You" PERFORMER "Marc et Claude" INDEX 01 00:00:00FILE "05 - DJ Tom-X - Cocaine.wav" WAVE TRACK 05 AUDIO TITLE "Cocaine" PERFORMER "DJ Tom-X" INDEX 01 00:00:00FILE "06 - Unit 4 - The Ultimate.wav" WAVE TRACK 06 AUDIO TITLE "The Ultimate" PERFORMER "Unit 4" INDEX 01 00:00:00FILE "07 - Geal - Losing My Feelin (The Beholder & Balistic remix).wav" WAVE TRACK 07 AUDIO TITLE "Losing My Feelin (The Beholder & Balistic remix)" PERFORMER "Geal" INDEX 01 00:00:00FILE "08 - DJ Zemtec - Bring Me Your Silence (Gary D remix).wav" WAVE TRACK 08 AUDIO TITLE "Bring Me Your Silence (Gary D remix)" PERFORMER "DJ Zemtec" INDEX 01 00:00:00FILE "09 - Pacific Link - Rings of Jupiter.wav" WAVE TRACK 09 AUDIO TITLE "Rings of Jupiter" PERFORMER "Pacific Link" INDEX 01 00:00:00FILE "10 - Deepack - 100%.wav" WAVE TRACK 10 AUDIO TITLE "100%" PERFORMER "Deepack" INDEX 01 00:00:00FILE "11 - Hardstyle Masterz - Age of Reverse Bass.wav" WAVE TRACK 11 AUDIO TITLE "Age of Reverse Bass" PERFORMER "Hardstyle Masterz" INDEX 01 00:00:00FILE "12 - DJ Zany - P.L.O.R.K.wav" WAVE TRACK 12 AUDIO TITLE "P.L.O.R.K" PERFORMER "DJ Zany" INDEX 01 00:00:00FILE "13 - Hardheadz - Wreck Thiz Place.wav" WAVE TRACK 13 AUDIO TITLE "Wreck Thiz Place" PERFORMER "Hardheadz" INDEX 01 00:00:00FILE "14 - ZX aka Zenith vs Avex - Scream.wav" WAVE TRACK 14 AUDIO TITLE "Scream" PERFORMER "ZX aka Zenith vs Avex" INDEX 01 00:00:00FILE "15 - Ard und Jorn - 16.wav" WAVE TRACK 15 AUDIO TITLE "16" PERFORMER "Ard und Jorn" INDEX 01 00:00:00

_________________
Показать сообщения:    

Текущее время: Сегодня 20:31

Часовой пояс: GMT



Вы не можете начинать темы
Вы не можете отвечать на сообщения
Вы не можете редактировать свои сообщения
Вы не можете удалять свои сообщения
Вы не можете голосовать в опросах
Вы не можете прикреплять файлы к сообщениям
Вы не можете скачивать файлы
Наши партнеры: интернет магазин Ивановского трикотажа textilla.ru