Важное объявление!
У Нас Все раздачи мультитрекерные, при нуле пиров в релизах, можете смело вставать на закачку!
 
Автор Сообщение

HUNTER

Стаж:
4 года 10 месяцев
Сообщений:
65542

Репутация: 101

[+] [-]
Вне форума [Профиль] [ЛС]

Frequencerz / Medium Rare
Жанр: hardstyle, hardcore.dance , electronic, techno
Носитель: CD
Год издания: 2016
Издатель (лейбл): Roughstate
Номер по каталогу: ROUGHCD001
Аудиокодек: FLAC (*.flac)
Тип рипа: tracks+.cue
Битрейт аудио: lossless
Продолжительность: 59:03
Источник (релизер): What
Наличие сканов в содержимом раздачи: нет

01. Frequencerz - A Muse
02. Frequencerz & Tartaros Ft. MC Jeff - Wolfpack
03. Frequencerz & Da Tweekaz - Full Control
04. Frequencerz - 12FU
05. Frequencerz & Zany - Embrace
06. B-Freqz - In The Club
07. Frequencerz Ft. MC Jeff - Shotgun
08. Frequencerz & Hard Driver - Snap Ya Neck
09. B-Freqz - Psycho (2016 Edit)
10. Frequencerz & Ran-D - Shut Up
11. Frequencerz - Open Your Mind
12. Frequencerz & E-Force - Gods
13. Frequencerz - Rockstar (Sub Zero Project Remix)
14. Frequencerz & Warface - Elevate
15. Frequencerz - Nuclear
16. Frequencerz - Bitch (B-Freqz Hardcore Remix)
17. Frequencerz & Tartaros Ft. MC Jeff - Wolfpack (Qlimax Edit)

Лог создания рипа

Exact Audio Copy V1.1 from 23. June 2015
EAC extraction logfile from 4. April 2016, 16:08
Frequencerz / Medium Rare
Used drive : TSSTcorpDVDWBD SH-B123L Adapter: 1 ID: 0
Read mode : SecureUtilize accurate stream : YesDefeat audio cache : YesMake use of C2 pointers : No
Read offset correction : 6Overread into Lead-In and Lead-Out : NoFill up missing offset samples with silence : YesDelete leading and trailing silent blocks : NoNull samples used in CRC calculations : YesUsed interface : Native Win32 interface for Win NT & 2000Gap handling : Appended to previous track
Used output format : User Defined EncoderSelected bitrate : 1024 kBit/sQuality : HighAdd ID3 tag : NoCommand line compressor : C:\Program Files (x86)\Exact Audio Copy\FLAC\FLAC.EXEAdditional command line options : -6 -V -T "ARTIST=%artist%" -T "TITLE=%title%" -T "ALBUM=%albumtitle%" -T "DATE=%year%" -T "TRACKNUMBER=%tracknr%" -T "GENRE=%genre%" -T "COMMENT=%comment%" -T "BAND=%albuminterpret%" -T "ALBUMARTIST=%albuminterpret%" -T "COMPOSER=%composer%" %haslyrics%--tag-from-file=LYRICS="%lyricsfile%"%haslyrics% -T "DISCNUMBER=%cdnumber%" -T "TOTALDISCS=%totalcds%" -T "TOTALTRACKS=%numtracks%" %hascover%--picture="%coverfile%"%hascover% %source% -o %dest%
TOC of the extracted CD
Track | Start | Length | Start sector | End sector --------------------------------------------------------- 1 | 0:00.00 | 3:31.66 | 0 | 15890 2 | 3:31.66 | 2:54.28 | 15891 | 28968 3 | 6:26.19 | 3:46.50 | 28969 | 45968 4 | 10:12.69 | 3:52.35 | 45969 | 63403 5 | 14:05.29 | 2:59.33 | 63404 | 76861 6 | 17:04.62 | 3:33.38 | 76862 | 92874 7 | 20:38.25 | 3:46.36 | 92875 | 109860 8 | 24:24.61 | 2:48.42 | 109861 | 122502 9 | 27:13.28 | 2:38.44 | 122503 | 134396 10 | 29:51.72 | 4:27.41 | 134397 | 154462 11 | 34:19.38 | 3:12.10 | 154463 | 168872 12 | 37:31.48 | 4:08.68 | 168873 | 187540 13 | 41:40.41 | 3:33.02 | 187541 | 203517 14 | 45:13.43 | 4:09.43 | 203518 | 222235 15 | 49:23.11 | 4:11.02 | 222236 | 241062 16 | 53:34.13 | 2:09.38 | 241063 | 250775 17 | 55:43.51 | 2:32.50 | 250776 | 262225
Track 1
Filename G:\Frequencerz - Medium Rare (2016) [FLAC]\01 - A Muse.wav
Pre-gap length 0:00:02.00
Peak level 98.7 % Extraction speed 3.5 X Track quality 100.0 % Test CRC 478BE8F7 Copy CRC 478BE8F7 Track not present in AccurateRip database Copy OK
Track 2
Filename G:\Frequencerz - Medium Rare (2016) [FLAC]\02 - Wolfpack.wav
Peak level 98.7 % Extraction speed 3.3 X Track quality 100.0 % Test CRC D04CEBDF Copy CRC D04CEBDF Track not present in AccurateRip database Copy OK
Track 3
Filename G:\Frequencerz - Medium Rare (2016) [FLAC]\03 - Full Control.wav
Peak level 98.7 % Extraction speed 4.1 X Track quality 100.0 % Test CRC 9817144E Copy CRC 9817144E Track not present in AccurateRip database Copy OK
Track 4
Filename G:\Frequencerz - Medium Rare (2016) [FLAC]\04 - 12FU.wav
Peak level 98.7 % Extraction speed 4.5 X Track quality 100.0 % Test CRC 0B3D2082 Copy CRC 0B3D2082 Track not present in AccurateRip database Copy OK
Track 5
Filename G:\Frequencerz - Medium Rare (2016) [FLAC]\05 - Embrace.wav
Peak level 98.7 % Extraction speed 4.5 X Track quality 100.0 % Test CRC 177554D9 Copy CRC 177554D9 Track not present in AccurateRip database Copy OK
Track 6
Filename G:\Frequencerz - Medium Rare (2016) [FLAC]\06 - In The Club.wav
Peak level 98.7 % Extraction speed 4.9 X Track quality 100.0 % Test CRC F9336172 Copy CRC F9336172 Track not present in AccurateRip database Copy OK
Track 7
Filename G:\Frequencerz - Medium Rare (2016) [FLAC]\07 - Shotgun.wav
Peak level 98.7 % Extraction speed 5.2 X Track quality 100.0 % Test CRC FB92F259 Copy CRC FB92F259 Track not present in AccurateRip database Copy OK
Track 8
Filename G:\Frequencerz - Medium Rare (2016) [FLAC]\08 - Snap Ya Neck.wav
Peak level 98.7 % Extraction speed 5.2 X Track quality 100.0 % Test CRC 4F374B2B Copy CRC 4F374B2B Track not present in AccurateRip database Copy OK
Track 9
Filename G:\Frequencerz - Medium Rare (2016) [FLAC]\09 - Psycho (2016 Edit).wav
Peak level 98.7 % Extraction speed 5.3 X Track quality 100.0 % Test CRC 5E50008C Copy CRC 5E50008C Track not present in AccurateRip database Copy OK
Track 10
Filename G:\Frequencerz - Medium Rare (2016) [FLAC]\10 - Shut Up.wav
Peak level 98.7 % Extraction speed 4.9 X Track quality 99.9 % Test CRC B4DC7B20 Copy CRC B4DC7B20 Track not present in AccurateRip database Copy OK
Track 11
Filename G:\Frequencerz - Medium Rare (2016) [FLAC]\11 - Open Your Mind.wav
Peak level 98.7 % Extraction speed 5.9 X Track quality 100.0 % Test CRC FBC11810 Copy CRC FBC11810 Track not present in AccurateRip database Copy OK
Track 12
Filename G:\Frequencerz - Medium Rare (2016) [FLAC]\12 - Gods.wav
Peak level 98.7 % Extraction speed 6.3 X Track quality 100.0 % Test CRC 299203FF Copy CRC 299203FF Track not present in AccurateRip database Copy OK
Track 13
Filename G:\Frequencerz - Medium Rare (2016) [FLAC]\13 - Rockstar (Sub Zero Project Remix).wav
Peak level 98.7 % Extraction speed 6.4 X Track quality 100.0 % Test CRC AF04011F Copy CRC AF04011F Track not present in AccurateRip database Copy OK
Track 14
Filename G:\Frequencerz - Medium Rare (2016) [FLAC]\14 - Elevate.wav
Peak level 98.7 % Extraction speed 6.7 X Track quality 100.0 % Test CRC E4252E75 Copy CRC E4252E75 Track not present in AccurateRip database Copy OK
Track 15
Filename G:\Frequencerz - Medium Rare (2016) [FLAC]\15 - Nuclear.wav
Peak level 98.7 % Extraction speed 5.7 X Track quality 99.9 % Test CRC 6DAF5CC0 Copy CRC 6DAF5CC0 Track not present in AccurateRip database Copy OK
Track 16
Filename G:\Frequencerz - Medium Rare (2016) [FLAC]\16 - Bitch (B-Freqz Hardcore Remix).wav
Peak level 98.7 % Extraction speed 4.6 X Track quality 99.9 % Test CRC D98609A3 Copy CRC D98609A3 Track not present in AccurateRip database Copy OK
Track 17
Filename G:\Frequencerz - Medium Rare (2016) [FLAC]\17 - Wolfpack (Qlimax Edit).wav
Peak level 98.7 % Extraction speed 2.1 X Track quality 99.7 % Test CRC 7BD35F51 Copy CRC 7BD35F51 Track not present in AccurateRip database Copy OK
None of the tracks are present in the AccurateRip database
No errors occurred
End of status report
---- CUETools DB Plugin V2.1.6
[CTDB TOCID: NU1D3wUXEvgDmMcsz7N.TNcNK0s-] disk not present in databaseSubmit result: NU1D3wUXEvgDmMcsz7N.TNcNK0s- has been uploaded
==== Log checksum DE95DEC68EA851F9C4BAE68C3CCDEC27B4E662843C86D0E2BDE79291FC3BAD86 ====

Содержание индексной карты (.CUE)

REM GENRE HardstyleREM DATE 2016REM DISCID DB0DA811REM COMMENT "ExactAudioCopy v1.1"CATALOG 8719128491417PERFORMER "Frequencerz"TITLE "Medium Rare"FILE "01 - A Muse.wav" WAVE TRACK 01 AUDIO TITLE "A Muse" PERFORMER "Frequencerz" ISRC NLH3Q1500056 INDEX 01 00:00:00FILE "02 - Wolfpack.wav" WAVE TRACK 02 AUDIO TITLE "Wolfpack" PERFORMER "Frequencerz & Tartaros ft. MC Jeff" ISRC NLH3Q1500037 INDEX 01 00:00:00FILE "03 - Full Control.wav" WAVE TRACK 03 AUDIO TITLE "Full Control" PERFORMER "Frequencerz & Da Tweekaz" ISRC NLH3Q1500060 INDEX 01 00:00:00FILE "04 - 12FU.wav" WAVE TRACK 04 AUDIO TITLE "12FU" PERFORMER "Frequencerz" ISRC NLH3Q1500062 INDEX 01 00:00:00FILE "05 - Embrace.wav" WAVE TRACK 05 AUDIO TITLE "Embrace" PERFORMER "Frequencerz & Zany" ISRC NLH3Q1500064 INDEX 01 00:00:00FILE "06 - In The Club.wav" WAVE TRACK 06 AUDIO TITLE "In The Club" PERFORMER "Frequencerz" ISRC NLH3Q1500066 INDEX 01 00:00:00FILE "07 - Shotgun.wav" WAVE TRACK 07 AUDIO TITLE "Shotgun" PERFORMER "Frequencerz ft. MC Jeff" ISRC NLH3Q1500068 INDEX 01 00:00:00FILE "08 - Snap Ya Neck.wav" WAVE TRACK 08 AUDIO TITLE "Snap Ya Neck" PERFORMER "Frequencerz & Hard Driver" ISRC NLH3Q1500070 INDEX 01 00:00:00FILE "09 - Psycho (2016 Edit).wav" WAVE TRACK 09 AUDIO TITLE "Psycho (2016 Edit)" PERFORMER "B-Freqz" ISRC NLH3Q1500072 INDEX 01 00:00:00FILE "10 - Shut Up.wav" WAVE TRACK 10 AUDIO TITLE "Shut Up" PERFORMER "Frequencerz & Ran-D" ISRC NLH3Q1500074 INDEX 01 00:00:00FILE "11 - Open Your Mind.wav" WAVE TRACK 11 AUDIO TITLE "Open Your Mind" PERFORMER "Frequencerz" ISRC NLH3Q1500076 INDEX 01 00:00:00FILE "12 - Gods.wav" WAVE TRACK 12 AUDIO TITLE "Gods" PERFORMER "Frequencerz & E-Force" ISRC NLH3Q1500076 INDEX 01 00:00:00FILE "13 - Rockstar (Sub Zero Project Remix).wav" WAVE TRACK 13 AUDIO TITLE "Rockstar (Sub Zero Project Remix)" PERFORMER "Frequencerz" ISRC NLH3Q1500080 INDEX 01 00:00:00FILE "14 - Elevate.wav" WAVE TRACK 14 AUDIO TITLE "Elevate" PERFORMER "Frequencerz & Warface" ISRC NLH3Q1500082 INDEX 01 00:00:00FILE "15 - Nuclear.wav" WAVE TRACK 15 AUDIO TITLE "Nuclear" PERFORMER "Frequencerz" ISRC NLH3Q1500084 INDEX 01 00:00:00FILE "16 - Bitch (B-Freqz Hardcore Remix).wav" WAVE TRACK 16 AUDIO

_________________
Показать сообщения:    

Текущее время: Сегодня 16:03

Часовой пояс: GMT



Вы не можете начинать темы
Вы не можете отвечать на сообщения
Вы не можете редактировать свои сообщения
Вы не можете удалять свои сообщения
Вы не можете голосовать в опросах
Вы не можете прикреплять файлы к сообщениям
Вы не можете скачивать файлы