Ивановский Торрент трекер
Яндекс.Погода
 

[Цитировать]
HUNTER

D-Block & S-te-Fan / Rockin' Ur Mind Жанр: Hardstyle
Страна-производитель диска: Netherlands
Год издания: 2011
Издатель (лейбл): Scantraxx
Номер по каталогу: SCCD004
EAN: 8717591367611
Страна: Netherlands
Аудиокодек: FLAC (*.flac)
Тип рипа: image+.cue
Битрейт аудио: lossless
Продолжительность: 01:11:26
Источник (релизер): ED-BARS (собственный диск)
Наличие сканов в содержимом раздачи: нет

01. D-Block & S-te-Fan – Rockin' Ur Mind
02. Wildstylez – Back 2 Basics
03. D-Block & S-te-Fan ft. MC Villain – Evolutionz (2011 Refixx)
04. Waverider – Be As One
05. Tuneboy & Stephanie – Music Is
06. D-Block & S-te-Fan – Loopmachine
07. Headhunterz – From Within
08. Marcel Woods – The Bottle (Showtek Rmx)
09. Isaac vs. D-Block & S-te-Fan – Speed Of Sound
10. Blutonium Boy – Make It Loud (Headhunterz Rmx)
11. Noisecontrollers & Wildstylez – A Different Story / Stardust (Mash Up)
12. TNT aka Technoboy N Tuneboy – Pulsation
13. Frontliner – I Saw It
14. D-Block & S-te-Fan – Underground Tacticz
15. Psyko Punkz – Bassboom
16. Brennan Heart & Zany – Bang The Bass
17. D-Block & S-te-Fan – Music Made Addict (Headhunterz & Wildstylez Rmx)
18. Deepack & Luna – Party Animal
19. Zatox vs. D-Block & S-te-Fan – Madhouse

Лог создания рипа

Exact Audio Copy V1.0 beta 3 from 29. August 2011
EAC extraction logfile from 3. May 2013, 13:17
VA / Rockin' ur Mind - D-Block & S-te-Fan
Used drive : HL-DT-STDVD-RAM GH22LP20 Adapter: 1 ID: 0
Read mode : SecureUtilize accurate stream : YesDefeat audio cache : YesMake use of C2 pointers : No
Read offset correction : 102Overread into Lead-In and Lead-Out : NoFill up missing offset samples with silence : YesDelete leading and trailing silent blocks : NoNull samples used in CRC calculations : YesUsed interface : Native Win32 interface for Win NT & 2000
Used output format : User Defined EncoderSelected bitrate : 128 kBit/sQuality : HighAdd ID3 tag : NoCommand line compressor : C:\Program Files\Exact Audio Copy\FLAC\FLAC.EXEAdditional command line options : -6 -V -T "ARTIST=%artist%" -T "TITLE=%title%" -T "ALBUM=%albumtitle%" -T "DATE=%year%" -T "TRACKNUMBER=%tracknr%" -T "GENRE=%genre%" -T "COMMENT=%comment%" -T "BAND=%albuminterpret%" -T "ALBUMARTIST=%albuminterpret%" -T "COMPOSER=%composer%" %haslyrics%--tag-from-file=LYRICS="%lyricsfile%"%haslyrics% -T "DISCNUMBER=%cdnumber%" -T "TOTALDISCS=%totalcds%" -T "TOTALTRACKS=%numtracks%" %hascover%--picture="%coverfile%"%hascover% %source% -o %dest%
TOC of the extracted CD
Track | Start | Length | Start sector | End sector --------------------------------------------------------- 1 | 0:00.00 | 4:56.07 | 0 | 22206 2 | 4:56.07 | 4:08.31 | 22207 | 40837 3 | 9:04.38 | 3:51.45 | 40838 | 58207 4 | 12:56.08 | 4:09.45 | 58208 | 76927 5 | 17:05.53 | 2:41.45 | 76928 | 89047 6 | 19:47.23 | 4:42.52 | 89048 | 110249 7 | 24:30.00 | 3:28.37 | 110250 | 125886 8 | 27:58.37 | 2:31.10 | 125887 | 137221 9 | 30:29.47 | 4:36.43 | 137222 | 157964 10 | 35:06.15 | 4:36.55 | 157965 | 178719 11 | 39:42.70 | 3:28.00 | 178720 | 194319 12 | 43:10.70 | 2:33.44 | 194320 | 205838 13 | 45:44.39 | 3:07.16 | 205839 | 219879 14 | 48:51.55 | 4:35.15 | 219880 | 240519 15 | 53:26.70 | 3:18.30 | 240520 | 255399 16 | 56:45.25 | 3:03.18 | 255400 | 269142 17 | 59:48.43 | 4:16.16 | 269143 | 288358 18 | 64:04.59 | 2:21.27 | 288359 | 298960 19 | 66:26.11 | 4:59.58 | 298961 | 321443
Range status and errors
Selected range
Filename C:\Users\Edgar Mugin\Desktop\VA - Rockin' ur Mind - D-Block & S-te-Fan.wav
Peak level 99.4 % Extraction speed 2.9 X Range quality 100.0 % Test CRC 2E58A7D1 Copy CRC 2E58A7D1 Copy OK
No errors occurred
AccurateRip summary
Track 1 not present in databaseTrack 2 not present in databaseTrack 3 not present in databaseTrack 4 not present in databaseTrack 5 not present in databaseTrack 6 not present in databaseTrack 7 not present in databaseTrack 8 not present in databaseTrack 9 not present in databaseTrack 10 not present in databaseTrack 11 not present in databaseTrack 12 not present in databaseTrack 13 not present in databaseTrack 14 not present in databaseTrack 15 not present in databaseTrack 16 not present in databaseTrack 17 not present in databaseTrack 18 not present in databaseTrack 19 not present in database
None of the tracks are present in the AccurateRip database
End of status report

Содержание индексной карты (.CUE)

REM GENRE HardstyleREM DATE 2011REM DISCID 3110BD13REM COMMENT "ExactAudioCopy v1.0b3"PERFORMER "D-Block & S-te-Fan"TITLE "Rockin' Ur Mind"FILE "VA - Rockin' ur Mind - D-Block & S-te-Fan.flac" WAVE TRACK 01 AUDIO TITLE "Rockin' Ur Mind" PERFORMER "D-Block & S-te-Fan" INDEX 01 00:00:00 TRACK 02 AUDIO TITLE "Back 2 Basics" PERFORMER "Wildstylez" INDEX 01 04:56:07 TRACK 03 AUDIO TITLE "Evolutionz (2011 Refixx)" PERFORMER "D-Block & S-te-Fan ft. MC Villain" INDEX 01 09:04:38 TRACK 04 AUDIO TITLE "Be As One" PERFORMER "Waverider" INDEX 01 12:56:08 TRACK 05 AUDIO TITLE "Music Is / ISRC:IT-C94-10-01475" PERFORMER "Tuneboy & Stephanie" INDEX 01 17:05:53 TRACK 06 AUDIO TITLE "Loopmachine" PERFORMER "D-Block & S-te-Fan" INDEX 01 19:47:23 TRACK 07 AUDIO TITLE "From within" PERFORMER "Headhunterz" INDEX 01 24:30:00 TRACK 08 AUDIO TITLE "The Bottle (Showtek Rmx)" PERFORMER "Marcel Woods" INDEX 01 27:58:37 TRACK 09 AUDIO TITLE "Speed of sound" PERFORMER "Isaac vs. D-Block & S-te-Fan" INDEX 01 30:29:47 TRACK 10 AUDIO TITLE "Make it Loud (Headhunterz Remix)" PERFORMER "Blutonium Boy" INDEX 01 35:06:15 TRACK 11 AUDIO TITLE "A Different story / Stardust (Mash up)" PERFORMER "Noisecontrollers & Wildstylez" INDEX 01 39:42:70 TRACK 12 AUDIO TITLE "A Different story / Stardust (Mash up)" PERFORMER "Noisecontrollers & Wildstylez" INDEX 01 43:10:70 TRACK 13 AUDIO TITLE "I saw it" PERFORMER "Frontliner" INDEX 01 45:44:39 TRACK 14 AUDIO TITLE "Underground Tacticz" PERFORMER "D-Block & S-te-Fan" INDEX 01 48:51:55 TRACK 15 AUDIO TITLE "BassBoom" PERFORMER "Psyko Punkz" INDEX 01 53:26:70 TRACK 16 AUDIO TITLE "Bang The Bass" PERFORMER "Zany & Brennan Heart" INDEX 01 56:45:25 TRACK 17 AUDIO TITLE "Music Made Addict (Headhunterz & Wildstylez Rmx)" PERFORMER "D-Block & S-te-Fan" INDEX 01 59:48:43 TRACK 18 AUDIO TITLE "Party Animal" PERFORMER "Deepack & Luna" INDEX 01 64:04:59 TRACK 19 AUDIO TITLE "Madhouse" PERFORMER "Zatox vs. D-Block & S-te-Fan" INDEX 01 66:26:11
Доп. информация: На замену этой раздачи со статусом "# сомнительно" - http://rutracker.org/forum/viewtopic.php?t=4119258.
Отдельное спасибо hardhouse, за его помощь и понятные учения!

Об исполнителе (группе)

D-Block & S-Te-Fan — нидерландский хардстайл дуэт, состоящий из диджеев — Дидерика Баккера и Стефана дэн Дааса. Они начали сотрудничество в 2004 году. В детстве Баккер помогал отцу писать электронную музыку, что позволило ему освоить музыкальные навыки в раннем детстве. В 1990-х годах Даас был большим поклонником хэппи хардкора, откуда и черпал вдохновение. Объединение музыкантов в команду было очень удачным, после чего они уже выступали на таких фестивалях, как Qlimax, DefQon 1, Thrillogy, и Q-Base.
Первоначально они издавались под лейблом «Next Chapter Records», одна позднее подписали контракт с Scantraxx. Баккер и Даас в 2009 году записали гимн для фестиваля Qlimax, под названием «The Nature Of Our Mind». Это произошло через несколько месяцев после релиза их первого альбома «Music Made Addictz».
В 2010 году дуэт был включён журналом DJ Mag в сотню лучших диджеев, заняв 73 место в рейтинге, на основе читательского голосования. В 2011 году музыканты улучшили позицию, заняв 40 место в рейтинге.

Об альбоме (сборнике)

2011 - Rockin' Ur Mind (Альбом)
Релиз: 29 Января
Лейбл: Scantraxx
EAN: 8717591367611
Формат: Цифровой, CD

Состав

D-Block - Diederik Bakker
S-te-Fan - Stefan den Daas
Показать сообщения:    

Текущее время: 17-Окт 07:02

Часовой пояс: UTC - 1


Вы не можете начинать темы
Вы не можете отвечать на сообщения
Вы не можете редактировать свои сообщения
Вы не можете удалять свои сообщения
Вы не можете голосовать в опросах
Вы не можете прикреплять файлы к сообщениям
Вы не можете скачивать файлы

!ВНИМАНИЕ!
Сайт не предоставляет электронные версии произведений, а занимается лишь коллекционированием и каталогизацией ссылок, присылаемых и публикуемых на форуме нашими читателями. Если вы являетесь правообладателем какого-либо представленного материала и не желаете, чтобы ссылка на него находилась в нашем каталоге, свяжитесь с нами, и мы незамедлительно удалим ее. Файлы для обмена на трекере предоставлены пользователями сайта, и администрация не несет ответственности за их содержание. Просьба не заливать файлы, защищенные авторскими правами, а также файлы нелегального содержания!