Важное объявление!
У Нас Все раздачи мультитрекерные, при нуле пиров в релизах, можете смело вставать на закачку!
 
Автор Сообщение

HUNTER

Стаж:
4 года 4 месяца
Сообщений:
56772

Репутация: 101

[+] [-]
Вне форума [Профиль] [ЛС]

Defqon.1: Weekend Warriors – Live Mixed By Frontliner
Жанр: Hardstyle
Носитель: CD
Год издания: 2013
Издатель (лейбл): Be Yourself Music, Q-Dance
Аудиокодек: FLAC (*.flac)
Тип рипа: tracks+.cue
Битрейт аудио: lossless
Продолжительность: 45:08.760 (119 456 316 samples)
Источник (релизер): what.cd (WickedTroLL)
Треклист:
01. Q-dance – Intro Frontliner Saturday RED Defqon.1 2013
02. Frontliner – Symbols
03. Frontliner feat. Katt Niall – (We Are) Indestructible
04. Frontliner – Extreme loudnezz
05. Frontliner feat. Seraina – Tuning Into You
06. Max Enforcer & Frontliner – On The Go
07. Frontliner – Sunblast
08. Frontliner feat. John Harris – Halos
09. Technoboy – Rage (Frontliner Remix)
10. Frontliner – All In This Together
11. Frontliner – Ten Seconds
12. Frontliner – Spacer
13. Frontliner – Come On
14. B-Front & Frontliner – Magic

Лог создания рипа

Exact Audio Copy V1.0 beta 3 from 29. August 2011
EAC extraction logfile from 30. November 2013, 14:58
Various Artists / Frontliner Live At Defqon 1 2013
Used drive : PIONEER BD-RW BDR-206M Adapter: 5 ID: 0
Read mode : SecureUtilize accurate stream : YesDefeat audio cache : YesMake use of C2 pointers : No
Read offset correction : 667Overread into Lead-In and Lead-Out : NoFill up missing offset samples with silence : YesDelete leading and trailing silent blocks : NoNull samples used in CRC calculations : YesUsed interface : Native Win32 interface for Win NT & 2000Gap handling : Appended to previous track
Used output format : User Defined EncoderSelected bitrate : 1024 kBit/sQuality : HighAdd ID3 tag : NoCommand line compressor : C:\Program Files\EAC\App\EAC\FLAC\flac.exeAdditional command line options : -V -8 -T "Genre=%genre%" -T "Artist=%artist%" -T "Title=%title%" -T "Album=%albumtitle%" -T "Date=%year%" -T "Tracknumber=%tracknr%" -T "Comment=%comment%" %source%
TOC of the extracted CD
Track | Start | Length | Start sector | End sector --------------------------------------------------------- 1 | 0:00.00 | 1:40.74 | 0 | 7573 2 | 1:40.74 | 3:44.42 | 7574 | 24415 3 | 5:25.41 | 2:34.69 | 24416 | 36034 4 | 8:00.35 | 3:32.67 | 36035 | 52001 5 | 11:33.27 | 3:51.61 | 52002 | 69387 6 | 15:25.13 | 2:49.12 | 69388 | 82074 7 | 18:14.25 | 3:42.33 | 82075 | 98757 8 | 21:56.58 | 3:33.12 | 98758 | 114744 9 | 25:29.70 | 5:35.07 | 114745 | 139876 10 | 31:05.02 | 2:46.28 | 139877 | 152354 11 | 33:51.30 | 2:49.12 | 152355 | 165041 12 | 36:40.42 | 2:34.34 | 165042 | 176625 13 | 39:15.01 | 2:55.30 | 176626 | 189780 14 | 42:10.31 | 2:58.26 | 189781 | 203156
Track 1
Filename J:\EAC\- FLAC -\VA - Frontliner Live At Defqon 1 2013 [FLAC]\01 - Q-dance - Intro Frontliner Saturday RED Defqon.1 2013.wav
Pre-gap length 0:00:02.00
Peak level 98.4 % Extraction speed 2.4 X Track quality 100.0 % Test CRC D4C0B576 Copy CRC D4C0B576 Track not present in AccurateRip database Copy OK
Track 2
Filename J:\EAC\- FLAC -\VA - Frontliner Live At Defqon 1 2013 [FLAC]\02 - Frontliner - Symbols.wav
Peak level 98.6 % Extraction speed 3.1 X Track quality 100.0 % Test CRC 8FA61F16 Copy CRC 8FA61F16 Track not present in AccurateRip database Copy OK
Track 3
Filename J:\EAC\- FLAC -\VA - Frontliner Live At Defqon 1 2013 [FLAC]\03 - Frontliner feat. Katt Niall - (We Are) Indestructible.wav
Peak level 98.4 % Extraction speed 3.1 X Track quality 100.0 % Test CRC 00D3C06B Copy CRC 00D3C06B Track not present in AccurateRip database Copy OK
Track 4
Filename J:\EAC\- FLAC -\VA - Frontliner Live At Defqon 1 2013 [FLAC]\04 - Frontliner - Extreme loudnezz.wav
Peak level 98.6 % Extraction speed 3.5 X Track quality 100.0 % Test CRC F5774470 Copy CRC F5774470 Track not present in AccurateRip database Copy OK
Track 5
Filename J:\EAC\- FLAC -\VA - Frontliner Live At Defqon 1 2013 [FLAC]\05 - Frontliner feat. Seraina - Tuning Into You.wav
Peak level 99.1 % Extraction speed 3.9 X Track quality 100.0 % Test CRC FF6DBBD1 Copy CRC FF6DBBD1 Track not present in AccurateRip database Copy OK
Track 6
Filename J:\EAC\- FLAC -\VA - Frontliner Live At Defqon 1 2013 [FLAC]\06 - Max Enforcer & Frontliner - On The Go.wav
Peak level 98.8 % Extraction speed 3.8 X Track quality 100.0 % Test CRC B072E6BD Copy CRC B072E6BD Track not present in AccurateRip database Copy OK
Track 7
Filename J:\EAC\- FLAC -\VA - Frontliner Live At Defqon 1 2013 [FLAC]\07 - Frontliner - Sunblast.wav
Peak level 99.2 % Extraction speed 3.7 X Track quality 99.9 % Test CRC 7ABD3698 Copy CRC 7ABD3698 Track not present in AccurateRip database Copy OK
Track 8
Filename J:\EAC\- FLAC -\VA - Frontliner Live At Defqon 1 2013 [FLAC]\08 - Frontliner feat. John Harris - Halos.wav
Peak level 98.7 % Extraction speed 4.3 X Track quality 100.0 % Test CRC 5D0C1C43 Copy CRC 5D0C1C43 Track not present in AccurateRip database Copy OK
Track 9
Filename J:\EAC\- FLAC -\VA - Frontliner Live At Defqon 1 2013 [FLAC]\09 - Technoboy - Rage (Frontliner Remix).wav
Peak level 98.9 % Extraction speed 4.9 X Track quality 100.0 % Test CRC 7A13B514 Copy CRC 7A13B514 Track not present in AccurateRip database Copy OK
Track 10
Filename J:\EAC\- FLAC -\VA - Frontliner Live At Defqon 1 2013 [FLAC]\10 - Frontliner - All In This Together.wav
Peak level 98.7 % Extraction speed 4.6 X Track quality 100.0 % Test CRC BCB4D5FA Copy CRC BCB4D5FA Track not present in AccurateRip database Copy OK
Track 11
Filename J:\EAC\- FLAC -\VA - Frontliner Live At Defqon 1 2013 [FLAC]\11 - Frontliner - Ten Seconds.wav
Peak level 98.4 % Extraction speed 4.7 X Track quality 100.0 % Test CRC C76B3271 Copy CRC C76B3271 Track not present in AccurateRip database Copy OK
Track 12
Filename J:\EAC\- FLAC -\VA - Frontliner Live At Defqon 1 2013 [FLAC]\12 - Frontliner - Spacer.wav
Peak level 99.2 % Extraction speed 4.7 X Track quality 100.0 % Test CRC 28B49F79 Copy CRC 28B49F79 Track not present in AccurateRip database Copy OK
Track 13
Filename J:\EAC\- FLAC -\VA - Frontliner Live At Defqon 1 2013 [FLAC]\13 - Frontliner - Come On.wav
Peak level 98.8 % Extraction speed 4.9 X Track quality 100.0 % Test CRC 3EF73912 Copy CRC 3EF73912 Track not present in AccurateRip database Copy OK
Track 14
Filename J:\EAC\- FLAC -\VA - Frontliner Live At Defqon 1 2013 [FLAC]\14 - B-Front & Frontliner - Magic.wav
Peak level 99.4 % Extraction speed 5.0 X Track quality 100.0 % Test CRC 145EBEC5 Copy CRC 145EBEC5 Track not present in AccurateRip database Copy OK
None of the tracks are present in the AccurateRip database
No errors occurred
End of status report
==== Log checksum CA01566131194CAE5F3B7698EA680555879F2F207BAFA0EF95859C087F80D918 ====

Содержание индексной карты (.CUE)

REM GENRE HardStyleREM DATE 2013REM DISCID AD0A940EREM COMMENT "ExactAudioCopy v1.0b3"PERFORMER "Various Artists"TITLE "Frontliner Live At Defqon 1 2013"FILE "01 - Q-dance - Intro Frontliner Saturday RED Defqon.1 2013.wav" WAVE TRACK 01 AUDIO TITLE "Intro Frontliner Saturday RED Defqon.1 2013" PERFORMER "Q-dance" INDEX 01 00:00:00FILE "02 - Frontliner - Symbols.wav" WAVE TRACK 02 AUDIO TITLE "Symbols" PERFORMER "Frontliner" INDEX 01 00:00:00FILE "03 - Frontliner feat. Katt Niall - (We Are) Indestructible.wav" WAVE TRACK 03 AUDIO TITLE "(We Are) Indestructible" PERFORMER "Frontliner feat. Katt Niall" INDEX 01 00:00:00FILE "04 - Frontliner - Extreme loudnezz.wav" WAVE TRACK 04 AUDIO TITLE "Extreme loudnezz" PERFORMER "Frontliner" INDEX 01 00:00:00FILE "05 - Frontliner feat. Seraina - Tuning Into You.wav" WAVE TRACK 05 AUDIO TITLE "Tuning Into You" PERFORMER "Frontliner feat. Seraina" INDEX 01 00:00:00FILE "06 - Max Enforcer & Frontliner - On The Go.wav" WAVE TRACK 06 AUDIO TITLE "On The Go" PERFORMER "Max Enforcer & Frontliner" INDEX 01 00:00:00FILE "07 - Frontliner - Sunblast.wav" WAVE TRACK 07 AUDIO TITLE "Sunblast" PERFORMER "Frontliner" INDEX 01 00:00:00FILE "08 - Frontliner feat. John Harris - Halos.wav" WAVE TRACK 08 AUDIO TITLE "Halos" PERFORMER "Frontliner feat. John Harris" INDEX 01 00:00:00FILE "09 - Technoboy - Rage (Frontliner Remix).wav" WAVE TRACK 09 AUDIO TITLE "Rage (Frontliner Remix)" PERFORMER "Technoboy" INDEX 01 00:00:00FILE "10 - Frontliner - All In This Together.wav" WAVE TRACK 10 AUDIO TITLE "All In This Together" PERFORMER "Frontliner" INDEX 01 00:00:00FILE "11 - Frontliner - Ten Seconds.wav" WAVE TRACK 11 AUDIO TITLE "Ten Seconds" PERFORMER "Frontliner" INDEX 01 00:00:00FILE "12 - Frontliner - Spacer.wav" WAVE TRACK 12 AUDIO TITLE "Spacer" PERFORMER "Frontliner" INDEX 01 00:00:00FILE "13 - Frontliner - Come On.wav" WAVE TRACK 13 AUDIO TITLE "Come On" PERFORMER "Frontliner" INDEX 01 00:00:00FILE "14 - B-Front & Frontliner - Magic.wav" WAVE TRACK 14 AUDIO TITLE "Magic" PERFORMER "B-Front & Frontliner" INDEX 01 00:00:00

_________________
Показать сообщения:    

Текущее время: Сегодня 10:28

Часовой пояс: GMT



Вы не можете начинать темы
Вы не можете отвечать на сообщения
Вы не можете редактировать свои сообщения
Вы не можете удалять свои сообщения
Вы не можете голосовать в опросах
Вы не можете прикреплять файлы к сообщениям
Вы не можете скачивать файлы