Ивановский Торрент трекер
Яндекс.Погода
 

[Цитировать]
HUNTER

Crypsis - Cryptology
Жанр: Hardstyle
Носитель: CD
Страна-производитель диска (релиза): Netherlands
Год издания: 2012
Издатель (лейбл): Minus Is More
Номер по каталогу: CLDM2012138
Аудиокодек: FLAC (*.flac)
Тип рипа: tracks+.cue
Битрейт аудио: lossless
Продолжительность: 02:25:32
Источник (релизер): Собственный рип
Наличие сканов в содержимом раздачи: нет

Треклист

The Album
01. Intro (1:33)
02. The Main MF (3:57)
03. Trapped (4:22)
04. Void (4:27)
05. Another Shit Track (& Adaro) (4:15)
06. For Your Mind (4:03)
07. No God (& Chain Reaction) (3:37)
08. Lost In The Mist (3:34)
09. Cryptology (4:16)
10. The Attack (& Chain Reaction) (2:40)
11. Funk (4:51)
12. Damned (3:53)
13. Universe (& B-Front) (3:50)
14. Gangsta Shit (3:37)
15. The World Is Mine (4:28)
16. No Time 2 Chill (3:28)
17. The Demand (Radical Redemption Remix) (4:03)
18. You Know (3:05)
19. Drug 'N Roll (& Radical Redemption) (3:45)

Full Versions

01. Cryptology (5:23)
02. Lost In The Mist (4:40)
03. Another Shit Track (& Adaro) (5:09)
04. Trapped (5:16)
05. Universe (& B-Front) (4:58)
06. For Your Mind (5:10)
07. The Main MF (4:25)
08. No God (& Chain Reaction) (4:57)
09. The World Is Mine (5:15)
10. Funk (5:35)
11. The Demand (Radical Redemption Remix) (5:00)
12. No Time 2 Chill (4:36)
13. Damned (4:47)
14. You Know (4:02)
15. Drug 'N Roll (& Radical Redemption) (4:22)

Лог создания рипа

The Album
Exact Audio Copy V1.0 beta 3 from 29. August 2011
Отчёт EAC об извлечении, выполненном 30. декабря 2014, 15:18
Crypsis / Cryptology (The Album)
Дисковод: PIONEER DVD-RW DVR-220L Adapter: 0 ID: 0
Режим чтения : ДостоверностьИспользование точного потока : ДаОтключение кэша аудио : ДаИспользование указателей C2 : Нет
Коррекция смещения при чтении : 6Способность читать области Lead-in и Lead-out : НетЗаполнение пропущенных сэмплов тишиной : ДаУдаление блоков с тишиной в начале и конце : НетПри вычислениях CRC использовались нулевые сэмплы : ДаИнтерфейс : Встроенный Win32-интерфейс для Win NT/2000Обработка зазоров : Добавлено к предыдущему треку
Выходной формат : Пользовательский кодировщикВыбранный битрейт : 128 kBit/sКачество : ВысокийДобавление ID3-тега : НетУтилита сжатия : C:\Program Files (x86)\Exact Audio Copy\FLAC\FLAC.EXEДополнительные параметры : -V -8 -T "Genre=%genre%" -T "Artist=%artist%" -T "Title=%title%" -T "Album=%albumtitle%" -T "Date=%year%" -T "Tracknumber=%tracknr%" -T "Comment=%comment%" %source%
TOC извлечённого CD
Трек | Старт | Длительность | Начальный сектор | Конечный сектор --------------------------------------------------------------------- 1 | 0:00.00 | 1:33.34 | 0 | 7008 2 | 1:33.34 | 3:57.15 | 7009 | 24798 3 | 5:30.49 | 4:22.30 | 24799 | 44478 4 | 9:53.04 | 4:27.17 | 44479 | 64520 5 | 14:20.21 | 4:15.73 | 64521 | 83718 6 | 18:36.19 | 4:03.16 | 83719 | 101959 7 | 22:39.35 | 3:37.46 | 101960 | 118280 8 | 26:17.06 | 3:34.28 | 118281 | 134358 9 | 29:51.34 | 4:16.01 | 134359 | 153559 10 | 34:07.35 | 2:40.00 | 153560 | 165559 11 | 36:47.35 | 4:51.15 | 165560 | 187399 12 | 41:38.50 | 3:53.44 | 187400 | 204918 13 | 45:32.19 | 3:50.31 | 204919 | 222199 14 | 49:22.50 | 3:37.45 | 222200 | 238519 15 | 53:00.20 | 4:28.60 | 238520 | 258679 16 | 57:29.05 | 3:28.01 | 258680 | 274280 17 | 60:57.06 | 4:03.14 | 274281 | 292519 18 | 65:00.20 | 3:05.45 | 292520 | 306439 19 | 68:05.65 | 3:45.37 | 306440 | 323351
Трек 1
Имя файла D:\Random, Music\Music\Cryptology\The Album\01 Intro.wav
Длина предзазора 0:00:02.00
Пиковый уровень 100.0 % Скорость извлечения 3.6 X Качество трека 100.0 % CRC теста 3990C17D CRC копии 3990C17D Копирование... OK
Трек 2
Имя файла D:\Random, Music\Music\Cryptology\The Album\02 The Main MF.wav
Пиковый уровень 100.0 % Скорость извлечения 4.7 X Качество трека 100.0 % CRC теста 5B4FD793 CRC копии 5B4FD793 Копирование... OK
Трек 3
Имя файла D:\Random, Music\Music\Cryptology\The Album\03 Trapped.wav
Пиковый уровень 100.0 % Скорость извлечения 5.3 X Качество трека 100.0 % CRC теста 4E0452A4 CRC копии 4E0452A4 Копирование... OK
Трек 4
Имя файла D:\Random, Music\Music\Cryptology\The Album\04 Void.wav
Пиковый уровень 100.0 % Скорость извлечения 5.0 X Качество трека 99.9 % CRC теста F30F6D71 CRC копии F30F6D71 Копирование... OK
Трек 5
Имя файла D:\Random, Music\Music\Cryptology\The Album\05 Another Shit Track (& Adaro).wav
Пиковый уровень 100.0 % Скорость извлечения 5.3 X Качество трека 99.9 % CRC теста 97C36359 CRC копии 97C36359 Копирование... OK
Трек 6
Имя файла D:\Random, Music\Music\Cryptology\The Album\06 For Your Mind.wav
Пиковый уровень 100.0 % Скорость извлечения 6.3 X Качество трека 100.0 % CRC теста 24118476 CRC копии 24118476 Копирование... OK
Трек 7
Имя файла D:\Random, Music\Music\Cryptology\The Album\07 No God (& Chain Reaction).wav
Пиковый уровень 100.0 % Скорость извлечения 6.6 X Качество трека 100.0 % CRC теста E2CA6BD3 CRC копии E2CA6BD3 Копирование... OK
Трек 8
Имя файла D:\Random, Music\Music\Cryptology\The Album\08 Lost In The Mist.wav
Пиковый уровень 100.0 % Скорость извлечения 6.8 X Качество трека 100.0 % CRC теста 65CCC98C CRC копии 65CCC98C Копирование... OK
Трек 9
Имя файла D:\Random, Music\Music\Cryptology\The Album\09 Cryptology.wav
Пиковый уровень 100.0 % Скорость извлечения 7.3 X Качество трека 100.0 % CRC теста 2BD8ADF9 CRC копии 2BD8ADF9 Копирование... OK
Трек 10
Имя файла D:\Random, Music\Music\Cryptology\The Album\10 The Attack (& Chain Reaction).wav
Пиковый уровень 100.0 % Скорость извлечения 5.8 X Качество трека 99.9 % CRC теста FA57DE32 CRC копии FA57DE32 Копирование... OK
Трек 11
Имя файла D:\Random, Music\Music\Cryptology\The Album\11 Funk.wav
Пиковый уровень 100.0 % Скорость извлечения 7.8 X Качество трека 100.0 % CRC теста 0A9C3A74 CRC копии 0A9C3A74 Копирование... OK
Трек 12
Имя файла D:\Random, Music\Music\Cryptology\The Album\12 Damned.wav
Пиковый уровень 100.0 % Скорость извлечения 7.8 X Качество трека 100.0 % CRC теста 3FFF7274 CRC копии 3FFF7274 Копирование... OK
Трек 13
Имя файла D:\Random, Music\Music\Cryptology\The Album\13 Universe (& B-Front).wav
Пиковый уровень 100.0 % Скорость извлечения 7.1 X Качество трека 99.9 % CRC теста 9216011F CRC копии 9216011F Копирование... OK
Трек 14
Имя файла D:\Random, Music\Music\Cryptology\The Album\14 Gangsta Shit.wav
Пиковый уровень 100.0 % Скорость извлечения 8.4 X Качество трека 100.0 % CRC теста 311F3B39 CRC копии 311F3B39 Копирование... OK
Трек 15
Имя файла D:\Random, Music\Music\Cryptology\The Album\15 The World Is Mine.wav
Пиковый уровень 100.0 % Скорость извлечения 8.7 X Качество трека 100.0 % CRC теста 7BCB7780 CRC копии 7BCB7780 Копирование... OK
Трек 16
Имя файла D:\Random, Music\Music\Cryptology\The Album\16 No Time 2 Chill.wav
Пиковый уровень 100.0 % Скорость извлечения 8.6 X Качество трека 100.0 % CRC теста C0C16D9D CRC копии C0C16D9D Копирование... OK
Трек 17
Имя файла D:\Random, Music\Music\Cryptology\The Album\17 The Demand (Radical Redemption Remix).wav
Пиковый уровень 100.0 % Скорость извлечения 9.1 X Качество трека 100.0 % CRC теста BDED9A6B CRC копии BDED9A6B Копирование... OK
Трек 18
Имя файла D:\Random, Music\Music\Cryptology\The Album\18 You Know.wav
Пиковый уровень 100.0 % Скорость извлечения 7.6 X Качество трека 99.9 % CRC теста 92D6D28B CRC копии 92D6D28B Копирование... OK
Трек 19
Имя файла D:\Random, Music\Music\Cryptology\The Album\19 Drug 'N Roll (& Radical Redemption).wav
Пиковый уровень 99.2 % Скорость извлечения 9.6 X Качество трека 100.0 % CRC теста F7643A1B CRC копии F7643A1B Копирование... OK
Ошибок не произошло
Конец отчёта
==== Контрольная сумма отчёта 5F89C89D3E7D29FEB1D682660F2E86F1E52D2ADD4BC20F17DDFC8A0F547FA6A5 ====

Full Versions

Exact Audio Copy V1.0 beta 3 from 29. August 2011
Отчёт EAC об извлечении, выполненном 29. декабря 2014, 18:34
Crypsis / Cryptology (Full Versions)
Дисковод: PIONEER DVD-RW DVR-220L Adapter: 0 ID: 0
Режим чтения : ДостоверностьИспользование точного потока : ДаОтключение кэша аудио : ДаИспользование указателей C2 : Нет
Коррекция смещения при чтении : 6Способность читать области Lead-in и Lead-out : НетЗаполнение пропущенных сэмплов тишиной : ДаУдаление блоков с тишиной в начале и конце : НетПри вычислениях CRC использовались нулевые сэмплы : ДаИнтерфейс : Встроенный Win32-интерфейс для Win NT/2000Обработка зазоров : Добавлено к предыдущему треку
Выходной формат : Пользовательский кодировщикВыбранный битрейт : 128 kBit/sКачество : ВысокийДобавление ID3-тега : НетУтилита сжатия : C:\Program Files (x86)\Exact Audio Copy\FLAC\FLAC.EXEДополнительные параметры : -V -8 -T "Genre=%genre%" -T "Artist=%artist%" -T "Title=%title%" -T "Album=%albumtitle%" -T "Date=%year%" -T "Tracknumber=%tracknr%" -T "Comment=%comment%" %source%
TOC извлечённого CD
Трек | Старт | Длительность | Начальный сектор | Конечный сектор --------------------------------------------------------------------- 1 | 0:00.00 | 5:23.45 | 0 | 24269 2 | 5:23.45 | 4:40.20 | 24270 | 45289 3 | 10:03.65 | 5:09.31 | 45290 | 68495 4 | 15:13.21 | 5:16.60 | 68496 | 92255 5 | 20:30.06 | 4:58.59 | 92256 | 114664 6 | 25:28.65 | 5:10.32 | 114665 | 137946 7 | 30:39.22 | 4:25.03 | 137947 | 157824 8 | 35:04.25 | 4:57.47 | 157825 | 180146 9 | 40:01.72 | 5:15.15 | 180147 | 203786 10 | 45:17.12 | 5:35.05 | 203787 | 228916 11 | 50:52.17 | 5:00.27 | 228917 | 251443 12 | 55:52.44 | 4:36.09 | 251444 | 272152 13 | 60:28.53 | 4:47.40 | 272153 | 293717 14 | 65:16.18 | 4:02.55 | 293718 | 311922 15 | 69:18.73 | 4:22.21 | 311923 | 331593
Трек 1
Имя файла D:\Random, Music\Music\Cryptology\Full Versions\01 Cryptology.wav
Длина предзазора 0:00:02.00
Пиковый уровень 98.8 % Скорость извлечения 4.9 X Качество трека 100.0 % CRC теста 2BAA201F CRC копии 2BAA201F Копирование... OK
Трек 2
Имя файла D:\Random, Music\Music\Cryptology\Full Versions\02 Lost In The Mist.wav
Пиковый уровень 98.8 % Скорость извлечения 5.4 X Качество трека 100.0 % CRC теста 4B41293F CRC копии 4B41293F Копирование... OK
Трек 3
Имя файла D:\Random, Music\Music\Cryptology\Full Versions\03 Another Shit Track (& Adaro).wav
Пиковый уровень 99.2 % Скорость извлечения 5.4 X Качество трека 99.9 % CRC теста 55B6FB4C CRC копии 55B6FB4C Копирование... OK
Трек 4
Имя файла D:\Random, Music\Music\Cryptology\Full Versions\04 Trapped.wav
Пиковый уровень 99.0 % Скорость извлечения 6.5 X Качество трека 100.0 % CRC теста 07B4EE7E CRC копии 07B4EE7E Копирование... OK
Трек 5
Имя файла D:\Random, Music\Music\Cryptology\Full Versions\05 Universe (& B-Front).wav
Пиковый уровень 98.8 % Скорость извлечения 6.2 X Качество трека 99.9 % CRC теста 2328F085 CRC копии 2328F085 Копирование... OK
Трек 6
Имя файла D:\Random, Music\Music\Cryptology\Full Versions\06 For Your Mind.wav
Пиковый уровень 98.8 % Скорость извлечения 6.6 X Качество трека 99.9 % CRC теста B6372FCA CRC копии B6372FCA Копирование... OK
Трек 7
Имя файла D:\Random, Music\Music\Cryptology\Full Versions\07 The Main MF.wav
Пиковый уровень 100.0 % Скорость извлечения 7.5 X Качество трека 100.0 % CRC теста E8E0B9B3 CRC копии E8E0B9B3 Копирование... OK
Трек 8
Имя файла D:\Random, Music\Music\Cryptology\Full Versions\08 No God (& Chain Reaction).wav
Пиковый уровень 97.7 % Скорость извлечения 8.0 X Качество трека 100.0 % CRC теста 9639F356 CRC копии 9639F356 Копирование... OK
Трек 9
Имя файла D:\Random, Music\Music\Cryptology\Full Versions\09 The World Is Mine.wav
Пиковый уровень 98.8 % Скорость извлечения 8.3 X Качество трека 100.0 % CRC теста F9E7A9B0 CRC копии F9E7A9B0 Копирование... OK
Трек 10
Имя файла D:\Random, Music\Music\Cryptology\Full Versions\10 Funk.wav
Пиковый уровень 99.6 % Скорость извлечения 8.7 X Качество трека 100.0 % CRC теста 098EA781 CRC копии 098EA781 Копирование... OK
Трек 11
Имя файла D:\Random, Music\Music\Cryptology\Full Versions\11 The Demand (Radical Redemption Remix).wav
Пиковый уровень 99.2 % Скорость извлечения 8.9 X Качество трека 100.0 % CRC теста 4A8A9FEA CRC копии 4A8A9FEA Копирование... OK
Трек 12
Имя файла D:\Random, Music\Music\Cryptology\Full Versions\12 No Time 2 Chill.wav
Пиковый уровень 98.8 % Скорость извлечения 9.1 X Качество трека 100.0 % CRC теста F3987639 CRC копии F3987639 Копирование... OK
Трек 13
Имя файла D:\Random, Music\Music\Cryptology\Full Versions\13 Damned.wav
Пиковый уровень 98.8 % Скорость извлечения 9.4 X Качество трека 100.0 % CRC теста F5192B78 CRC копии F5192B78 Копирование... OK
Трек 14
Имя файла D:\Random, Music\Music\Cryptology\Full Versions\14 Youknow.wav
Пиковый уровень 98.8 % Скорость извлечения 9.6 X Качество трека 100.0 % CRC теста B20910E5 CRC копии B20910E5 Копирование... OK
Трек 15
Имя файла D:\Random, Music\Music\Cryptology\Full Versions\15 Drug 'N Roll (& Radical Redemption).wav
Пиковый уровень 99.2 % Скорость извлечения 8.7 X Качество трека 99.9 % CRC теста 36FDC0BE CRC копии 36FDC0BE Копирование... OK
Ошибок не произошло
Конец отчёта
==== Контрольная сумма отчёта 9CCFA09E558B37FCDD3BB8E323171CB10278275FC8C8B1322E921179D0565038 ====

Содержание индексной карты (.CUE)

The Album
REM DISCID 1710D713REM COMMENT "ExactAudioCopy v1.0b3"CATALOG 8718521007478PERFORMER "Crypsis"TITLE "Cryptology (The Album)"FILE "01 Intro.wav" WAVE TRACK 01 AUDIO TITLE "Intro" PERFORMER "Crypsis" INDEX 01 00:00:00FILE "02 The Main MF.wav" WAVE TRACK 02 AUDIO TITLE "The Main MF" PERFORMER "Crypsis" INDEX 01 00:00:00FILE "03 Trapped.wav" WAVE TRACK 03 AUDIO TITLE "Trapped" PERFORMER "Crypsis" INDEX 01 00:00:00FILE "04 Void.wav" WAVE TRACK 04 AUDIO TITLE "Void" PERFORMER "Crypsis" INDEX 01 00:00:00FILE "05 Another Shit Track (& Adaro).wav" WAVE TRACK 05 AUDIO TITLE "Another Shit Track (& Adaro)" PERFORMER "Crypsis" INDEX 01 00:00:00FILE "06 For Your Mind.wav" WAVE TRACK 06 AUDIO TITLE "For Your Mind" PERFORMER "Crypsis" INDEX 01 00:00:00FILE "07 No God (& Chain Reaction).wav" WAVE TRACK 07 AUDIO TITLE "No God (& Chain Reaction)" PERFORMER "Crypsis" INDEX 01 00:00:00FILE "08 Lost In The Mist.wav" WAVE TRACK 08 AUDIO TITLE "Lost In The Mist" PERFORMER "Crypsis" INDEX 01 00:00:00FILE "09 Cryptology.wav" WAVE TRACK 09 AUDIO TITLE "Cryptology" PERFORMER "Crypsis" INDEX 01 00:00:00FILE "10 The Attack (& Chain Reaction).wav" WAVE TRACK 10 AUDIO TITLE "The Attack (& Chain Reaction)" PERFORMER "Crypsis" INDEX 01 00:00:00FILE "11 Funk.wav" WAVE TRACK 11 AUDIO TITLE "Funk" PERFORMER "Crypsis" INDEX 01 00:00:00FILE "12 Damned.wav" WAVE TRACK 12 AUDIO TITLE "Damned" PERFORMER "Crypsis" INDEX 01 00:00:00FILE "13 Universe (& B-Front).wav" WAVE TRACK 13 AUDIO TITLE "Universe (& B-Front)" PERFORMER "Crypsis" INDEX 01 00:00:00FILE "14 Gangsta Shit.wav" WAVE TRACK 14 AUDIO TITLE "Gangsta Shit" PERFORMER "Crypsis" INDEX 01 00:00:00FILE "15 The World Is Mine.wav" WAVE TRACK 15 AUDIO TITLE "The World Is Mine" PERFORMER "Crypsis" INDEX 01 00:00:00FILE "16 No Time 2 Chill.wav" WAVE TRACK 16 AUDIO TITLE "No Time 2 Chill" PERFORMER "Crypsis" INDEX 01 00:00:00FILE "17 The Demand (Radical Redemption Remix).wav" WAVE TRACK 17 AUDIO TITLE "The Demand (Radical Redemption Remix)" PERFORMER "Crypsis" INDEX 01 00:00:00FILE "18 You Know.wav" WAVE TRACK 18 AUDIO TITLE "You Know" PERFORMER "Crypsis" INDEX 01 00:00:00FILE "19 Drug 'N Roll (& Radical Redemption).wav" WAVE TRACK 19 AUDIO TITLE "Drug 'N Roll (& Radical Redemption)" PERFORMER "Crypsis" INDEX 01 00:00:00

Full Versions

REM DISCID B111450FREM COMMENT "ExactAudioCopy v1.0b3"CATALOG 8718521007478PERFORMER "Crypsis"TITLE "Cryptology (Full Versions)"FILE "01 Cryptology.wav" WAVE TRACK 01 AUDIO TITLE "Cryptology" PERFORMER "Crypsis" INDEX 01 00:00:00FILE "02 Lost In The Mist.wav" WAVE TRACK 02 AUDIO TITLE "Lost In The Mist" PERFORMER "Crypsis" INDEX 01 00:00:00FILE "03 Another Shit Track (& Adaro).wav" WAVE TRACK 03 AUDIO TITLE "Another Shit Track (& Adaro)" PERFORMER "Crypsis" INDEX 01 00:00:00FILE "04 Trapped.wav" WAVE TRACK 04 AUDIO TITLE "Trapped" PERFORMER "Crypsis" INDEX 01 00:00:00FILE "05 Universe (& B-Front).wav" WAVE TRACK 05 AUDIO TITLE "Universe (& B-Front)" PERFORMER "Crypsis" INDEX 01 00:00:00FILE "06 For Your Mind.wav" WAVE TRACK 06 AUDIO TITLE "For Your Mind" PERFORMER "Crypsis" INDEX 01 00:00:00FILE "07 The Main MF.wav" WAVE TRACK 07 AUDIO TITLE "The Main MF" PERFORMER "Crypsis" INDEX 01 00:00:00FILE "08 No God (& Chain Reaction).wav" WAVE TRACK 08 AUDIO TITLE "No God (& Chain Reaction)" PERFORMER "Crypsis" INDEX 01 00:00:00FILE "09 The World Is Mine.wav" WAVE TRACK 09 AUDIO TITLE "The World Is Mine" PERFORMER "Crypsis" INDEX 01 00:00:00FILE "10 Funk.wav" WAVE TRACK 10 AUDIO TITLE "Funk" PERFORMER "Crypsis" INDEX 01 00:00:00FILE "11 The Demand (Radical Redemption Remix).wav" WAVE TRACK 11 AUDIO TITLE "The Demand (Radical Redemption Remix)" PERFORMER "Crypsis" INDEX 01 00:00:00FILE "12 No Time 2 Chill.wav" WAVE TRACK 12 AUDIO TITLE "No Time 2 Chill" PERFORMER "Crypsis" INDEX 01 00:00:00FILE "13 Damned.wav" WAVE TRACK 13 AUDIO TITLE "Damned" PERFORMER "Crypsis" INDEX 01 00:00:00FILE "14 Youknow.wav" WAVE TRACK 14 AUDIO TITLE "Youknow" PERFORMER "Crypsis" INDEX 01 00:00:00FILE "15 Drug 'N Roll (& Radical Redemption).wav" WAVE TRACK 15 AUDIO TITLE "Drug 'N Roll (& Radical Redemption)" PERFORMER "Crypsis" INDEX 01 00:00:00

Лог проверки качества

The Album
AUDIOCHECKER v2.0 beta (build 457) - by Dester - opdester@freemail.hu~~~~~~~~~~~~~~~~~~~~~~~~~~~~~~~~~~-=== НЕ РЕДАКТИРУЙТЕ ЭТОТ ФАЙЛ! ===-
Путь: ...\The Album
01 -=- 01 Intro.flac -=- CDDA (99%)02 -=- 02 The Main MF.flac -=- CDDA (100%)03 -=- 03 Trapped.flac -=- CDDA (100%)04 -=- 04 Void.flac -=- CDDA (100%)05 -=- 05 Another Shit Track (& Adaro).flac -=- CDDA (100%)06 -=- 06 For Your Mind.flac -=- CDDA (100%)07 -=- 07 No God (& Chain Reaction).flac -=- CDDA (100%)08 -=- 08 Lost In The Mist.flac -=- CDDA (100%)09 -=- 09 Cryptology.flac -=- CDDA (99%)10 -=- 10 The Attack (& Chain Reaction).flac -=- CDDA (100%)11 -=- 11 Funk.flac -=- CDDA (100%)12 -=- 12 Damned.flac -=- CDDA (100%)13 -=- 13 Universe (& B-Front).flac -=- CDDA (100%)14 -=- 14 Gangsta Shit.flac -=- CDDA (100%)15 -=- 15 The World Is Mine.flac -=- CDDA (100%)16 -=- 16 No Time 2 Chill.flac -=- CDDA (100%)17 -=- 17 The Demand (Radical Redemption Remix).flac -=- CDDA (100%)18 -=- 18 You Know.flac -=- CDDA (100%)19 -=- 19 Drug 'N Roll (& Radical Redemption).flac -=- CDDA (100%)
Сводка 99,89% CDDA
203285860

Full Versions

AUDIOCHECKER v2.0 beta (build 457) - by Dester - opdester@freemail.hu~~~~~~~~~~~~~~~~~~~~~~~~~~~~~~~~~~-=== НЕ РЕДАКТИРУЙТЕ ЭТОТ ФАЙЛ! ===-
Путь: ...\Full Versions
01 -=- 01 Cryptology.flac -=- CDDA (99%)02 -=- 02 Lost In The Mist.flac -=- CDDA (100%)03 -=- 03 Another Shit Track (& Adaro).flac -=- CDDA (100%)04 -=- 04 Trapped.flac -=- CDDA (100%)05 -=- 05 Universe (& B-Front).flac -=- CDDA (100%)06 -=- 06 For Your Mind.flac -=- CDDA (100%)07 -=- 07 The Main MF.flac -=- CDDA (100%)08 -=- 08 No God (& Chain Reaction).flac -=- CDDA (100%)09 -=- 09 The World Is Mine.flac -=- CDDA (100%)10 -=- 10 Funk.flac -=- CDDA (100%)11 -=- 11 The Demand (Radical Redemption Remix).flac -=- CDDA (99%)12 -=- 12 No Time 2 Chill.flac -=- CDDA (100%)13 -=- 13 Damned.flac -=- CDDA (100%)14 -=- 14 Youknow.flac -=- CDDA (100%)15 -=- 15 Drug 'N Roll (& Radical Redemption).flac -=- CDDA (100%)
Сводка 99,87% CDDA
213281956
0 человек читают эту тему: 0 пользователей, 0 скрытых пользователей, 0 гостей

Показать сообщения:    

Текущее время: 23-Авг 14:54

Часовой пояс: UTC - 1


Вы не можете начинать темы
Вы не можете отвечать на сообщения
Вы не можете редактировать свои сообщения
Вы не можете удалять свои сообщения
Вы не можете голосовать в опросах
Вы не можете прикреплять файлы к сообщениям
Вы не можете скачивать файлы

!ВНИМАНИЕ!
Сайт не предоставляет электронные версии произведений, а занимается лишь коллекционированием и каталогизацией ссылок, присылаемых и публикуемых на форуме нашими читателями. Если вы являетесь правообладателем какого-либо представленного материала и не желаете, чтобы ссылка на него находилась в нашем каталоге, свяжитесь с нами, и мы незамедлительно удалим ее. Файлы для обмена на трекере предоставлены пользователями сайта, и администрация не несет ответственности за их содержание. Просьба не заливать файлы, защищенные авторскими правами, а также файлы нелегального содержания!