Важное объявление!
У Нас Все раздачи мультитрекерные, при нуле пиров в релизах, можете смело вставать на закачку!
 
Автор Сообщение

HUNTER

Стаж:
4 года 4 месяца
Сообщений:
56829

Репутация: 101

[+] [-]
Вне форума [Профиль] [ЛС]

Brennan Heart / Evolution Of Style
Жанр: Hardstyle
Носитель: CD
Год издания: 2014
Издатель (лейбл): WE R
Номер по каталогу: WERDVD001
Аудиокодек: FLAC (*.flac)
Тип рипа: tracks+.cue
Битрейт аудио: lossless
Продолжительность: 1:06:57.187 (177 157 932 samples)
Источник (релизер): what.cd (WickedTroLL)
Треклист:
01. Brennan Heart – Evolution Continues
02. Brennan Heart with Jonatan Mendelsohn – Imaginary
03. Brennan Heart – Miles (End Credit Song)
04. Brennan Heart – Never Break Me (Toneshifterz Remix)
05. Brennan Heart – We Come & We Go (We R EOS Mix)
06. Brennan Heart with Code Black – Tonight Will Never Die
07. Brennan Heart – Privelege 2 Be Born Again
08. Brennan Heart – Scrap The System (Defqon.1 Australia Anthem 2013)
09. Brennan Heart – Wide Awake (EOS 2013 Mix)
10. Brennan Heart – F.I.F.O. (Original)
11. Brennan Heart – Life That We Dream Of (City2City)
12. Brennan Heart – We Can Escape
13. Brennan Heart with Zatox – Fight The Resistance
14. Brennan Heart with Wildstylez – Lose My Mind
15. Brennan Heart – Hardbass Junkie
16. Brennan Heart – Freaqshow Anthem
17. Brennan Heart – Running Late (Brennan Heart & Code Black MF Earthquake Rawmix)
18. Brennan Heart – F.I.F.O. (Outbreak Remix)
19. Brennan Heart – Evolution Continues (EOS Intro)
20. Brennan Heart – A Scattered Soul
Лог создания рипа
Exact Audio Copy V1.0 beta 3 from 29. August 2011
EAC extraction logfile from 4. May 2014, 12:50
Brennan Heart / Evolution Of Style
Used drive : PIONEER BD-RW BDR-206M Adapter: 10 ID: 1
Read mode : SecureUtilize accurate stream : YesDefeat audio cache : YesMake use of C2 pointers : No
Read offset correction : 667Overread into Lead-In and Lead-Out : NoFill up missing offset samples with silence : YesDelete leading and trailing silent blocks : NoNull samples used in CRC calculations : YesUsed interface : Native Win32 interface for Win NT & 2000Gap handling : Appended to previous track
Used output format : User Defined EncoderSelected bitrate : 1024 kBit/sQuality : HighAdd ID3 tag : NoCommand line compressor : C:\Program Files\EAC\App\EAC\FLAC\flac.exeAdditional command line options : -V -8 -T "Genre=%genre%" -T "Artist=%artist%" -T "Title=%title%" -T "Album=%albumtitle%" -T "Date=%year%" -T "Tracknumber=%tracknr%" -T "Comment=%comment%" %source%
TOC of the extracted CD
Track | Start | Length | Start sector | End sector --------------------------------------------------------- 1 | 0:00.00 | 3:21.22 | 0 | 15096 2 | 3:21.22 | 3:09.58 | 15097 | 29329 3 | 6:31.05 | 3:54.00 | 29330 | 46879 4 | 10:25.05 | 3:44.68 | 46880 | 63747 5 | 14:09.73 | 4:10.16 | 63748 | 82513 6 | 18:20.14 | 3:02.20 | 82514 | 96183 7 | 21:22.34 | 3:56.00 | 96184 | 113883 8 | 25:18.34 | 4:02.25 | 113884 | 132058 9 | 29:20.59 | 3:41.15 | 132059 | 148648 10 | 33:01.74 | 3:20.39 | 148649 | 163687 11 | 36:22.38 | 3:53.57 | 163688 | 181219 12 | 40:16.20 | 2:46.64 | 181220 | 193733 13 | 43:03.09 | 3:08.18 | 193734 | 207851 14 | 46:11.27 | 3:04.05 | 207852 | 221656 15 | 49:15.32 | 3:39.46 | 221657 | 238127 16 | 52:55.03 | 3:08.68 | 238128 | 252295 17 | 56:03.71 | 3:39.02 | 252296 | 268722 18 | 59:42.73 | 3:07.45 | 268723 | 282792 19 | 62:50.43 | 1:52.17 | 282793 | 291209 20 | 64:42.60 | 2:14.29 | 291210 | 301288
Track 1
Filename J:\EAC\- FLAC -\Brennan Heart - Evolution Of Style (2014) [FLAC]\01 - Brennan Heart - Evolution Continues.wav
Pre-gap length 0:00:02.00
Peak level 100.0 % Extraction speed 2.9 X Track quality 100.0 % Test CRC 3B996007 Copy CRC 3B996007 Track not present in AccurateRip database Copy OK
Track 2
Filename J:\EAC\- FLAC -\Brennan Heart - Evolution Of Style (2014) [FLAC]\02 - Brennan Heart with Jonatan Mendelsohn - Imaginary.wav
Pre-gap length 0:00:02.00
Peak level 100.0 % Extraction speed 3.1 X Track quality 100.0 % Test CRC EAE7E8F1 Copy CRC EAE7E8F1 Track not present in AccurateRip database Copy OK
Track 3
Filename J:\EAC\- FLAC -\Brennan Heart - Evolution Of Style (2014) [FLAC]\03 - Brennan Heart - Miles (End Credit Song).wav
Pre-gap length 0:00:02.00
Peak level 97.2 % Extraction speed 3.4 X Track quality 100.0 % Test CRC 6DFCFD6A Copy CRC 6DFCFD6A Track not present in AccurateRip database Copy OK
Track 4
Filename J:\EAC\- FLAC -\Brennan Heart - Evolution Of Style (2014) [FLAC]\04 - Brennan Heart - Never Break Me (Toneshifterz Remix).wav
Pre-gap length 0:00:02.00
Peak level 97.2 % Extraction speed 3.7 X Track quality 100.0 % Test CRC 3983D41D Copy CRC 3983D41D Track not present in AccurateRip database Copy OK
Track 5
Filename J:\EAC\- FLAC -\Brennan Heart - Evolution Of Style (2014) [FLAC]\05 - Brennan Heart - We Come & We Go (We R EOS Mix).wav
Pre-gap length 0:00:02.00
Peak level 100.0 % Extraction speed 3.9 X Track quality 100.0 % Test CRC ED181E8F Copy CRC ED181E8F Track not present in AccurateRip database Copy OK
Track 6
Filename J:\EAC\- FLAC -\Brennan Heart - Evolution Of Style (2014) [FLAC]\06 - Brennan Heart with Code Black - Tonight Will Never Die.wav
Pre-gap length 0:00:02.00
Peak level 100.0 % Extraction speed 3.3 X Track quality 99.9 % Test CRC 0D8931CE Copy CRC 0D8931CE Track not present in AccurateRip database Copy OK
Track 7
Filename J:\EAC\- FLAC -\Brennan Heart - Evolution Of Style (2014) [FLAC]\07 - Brennan Heart - Privelege 2 Be Born Again.wav
Pre-gap length 0:00:02.00
Peak level 100.0 % Extraction speed 4.2 X Track quality 100.0 % Test CRC AF65FD69 Copy CRC AF65FD69 Track not present in AccurateRip database Copy OK
Track 8
Filename J:\EAC\- FLAC -\Brennan Heart - Evolution Of Style (2014) [FLAC]\08 - Brennan Heart - Scrap The System (Defqon.1 Australia Anthem 2013).wav
Pre-gap length 0:00:02.00
Peak level 100.0 % Extraction speed 3.9 X Track quality 99.9 % Test CRC 7CAFCB39 Copy CRC 7CAFCB39 Track not present in AccurateRip database Copy OK
Track 9
Filename J:\EAC\- FLAC -\Brennan Heart - Evolution Of Style (2014) [FLAC]\09 - Brennan Heart - Wide Awake (EOS 2013 Mix).wav
Pre-gap length 0:00:02.00
Peak level 100.0 % Extraction speed 4.6 X Track quality 100.0 % Test CRC 693CDD52 Copy CRC 693CDD52 Track not present in AccurateRip database Copy OK
Track 10
Filename J:\EAC\- FLAC -\Brennan Heart - Evolution Of Style (2014) [FLAC]\10 - Brennan Heart - F.I.F.O. (Original).wav
Pre-gap length 0:00:02.00
Peak level 100.0 % Extraction speed 4.0 X Track quality 99.9 % Test CRC 5A4A4750 Copy CRC 5A4A4750 Track not present in AccurateRip database Copy OK
Track 11
Filename J:\EAC\- FLAC -\Brennan Heart - Evolution Of Style (2014) [FLAC]\11 - Brennan Heart - Life That We Dream Of (City2City).wav
Pre-gap length 0:00:02.00
Peak level 100.0 % Extraction speed 4.9 X Track quality 100.0 % Test CRC A157EC3F Copy CRC A157EC3F Track not present in AccurateRip database Copy OK
Track 12
Filename J:\EAC\- FLAC -\Brennan Heart - Evolution Of Style (2014) [FLAC]\12 - Brennan Heart - We Can Escape.wav
Pre-gap length 0:00:02.00
Peak level 100.0 % Extraction speed 4.7 X Track quality 100.0 % Test CRC 3FBE43AA Copy CRC 3FBE43AA Track not present in AccurateRip database Copy OK
Track 13
Filename J:\EAC\- FLAC -\Brennan Heart - Evolution Of Style (2014) [FLAC]\13 - Brennan Heart with Zatox - Fight The Resistance.wav
Pre-gap length 0:00:02.00
Peak level 100.0 % Extraction speed 4.2 X Track quality 99.9 % Test CRC 4F15B802 Copy CRC 4F15B802 Track not present in AccurateRip database Copy OK
Track 14
Filename J:\EAC\- FLAC -\Brennan Heart - Evolution Of Style (2014) [FLAC]\14 - Brennan Heart with Wildstylez - Lose My Mind.wav
Pre-gap length 0:00:02.00
Peak level 99.6 % Extraction speed 5.0 X Track quality 100.0 % Test CRC B3CD4A14 Copy CRC B3CD4A14 Track not present in AccurateRip database Copy OK
Track 15
Filename J:\EAC\- FLAC -\Brennan Heart - Evolution Of Style (2014) [FLAC]\15 - Brennan Heart - Hardbass Junkie.wav
Pre-gap length 0:00:02.00
Peak level 99.6 % Extraction speed 5.3 X Track quality 100.0 % Test CRC 585779A7 Copy CRC 585779A7 Track not present in AccurateRip database Copy OK
Track 16
Filename J:\EAC\- FLAC -\Brennan Heart - Evolution Of Style (2014) [FLAC]\16 - Brennan Heart - Freaqshow Anthem.wav
Pre-gap length 0:00:02.00
Peak level 100.0 % Extraction speed 4.5 X Track quality 99.9 % Test CRC 10E36BEE Copy CRC 10E36BEE Track not present in AccurateRip database Copy OK
Track 17
Filename J:\EAC\- FLAC -\Brennan Heart - Evolution Of Style (2014) [FLAC]\17 - Brennan Heart - Running Late (Brennan Heart & Code Black MF Earthquake Rawmix).wav
Pre-gap length 0:00:02.00
Peak level 100.0 % Extraction speed 5.6 X Track quality 100.0 % Test CRC 5622D4C0 Copy CRC 5622D4C0 Track not present in AccurateRip database Copy OK
Track 18
Filename J:\EAC\- FLAC -\Brennan Heart - Evolution Of Style (2014) [FLAC]\18 - Brennan Heart - F.I.F.O. (Outbreak Remix).wav
Pre-gap length 0:00:02.00
Peak level 100.0 % Extraction speed 5.5 X Track quality 100.0 % Test CRC 05D11721 Copy CRC 05D11721 Track not present in AccurateRip database Copy OK
Track 19
Filename J:\EAC\- FLAC -\Brennan Heart - Evolution Of Style (2014) [FLAC]\19 - Brennan Heart - Evolution Continues (EOS Intro).wav
Pre-gap length 0:00:02.00
Peak level 100.0 % Extraction speed 4.0 X Track quality 99.9 % Test CRC 88FDE46A Copy CRC 88FDE46A Track not present in AccurateRip database Copy OK
Track 20
Filename J:\EAC\- FLAC -\Brennan Heart - Evolution Of Style (2014) [FLAC]\20 - Brennan Heart - A Scattered Soul.wav
Pre-gap length 0:00:02.00
Peak level 96.7 % Extraction speed 5.3 X Track quality 100.0 % Test CRC CAD99C91 Copy CRC CAD99C91 Track not present in AccurateRip database Copy OK
None of the tracks are present in the AccurateRip database
No errors occurred
End of status report
==== Log checksum 5B23B1EE5C76BF9287AA345DFF4FFD6613965B3FDEEA1D53FC0EA344FEE40B9E ====
Содержание индексной карты (.CUE)
REM GENRE HardstyleREM DATE 2014REM DISCID 310FB114REM COMMENT "ExactAudioCopy v1.0b3"PERFORMER "Brennan Heart"TITLE "Evolution Of Style"FILE "01 - Brennan Heart - Evolution Continues.wav" WAVE TRACK 01 AUDIO TITLE "Evolution Continues" PERFORMER "Brennan Heart" ISRC NLE801300521 INDEX 01 00:00:00 TRACK 02 AUDIO TITLE "Imaginary" PERFORMER "Brennan Heart with Jonatan Mendelsohn" ISRC NLE801300417 INDEX 00 03:19:22FILE "02 - Brennan Heart with Jonatan Mendelsohn - Imaginary.wav" WAVE INDEX 01 00:00:00 TRACK 03 AUDIO TITLE "Miles (End Credit Song)" PERFORMER "Brennan Heart" ISRC NLE801300522 INDEX 00 03:07:58FILE "03 - Brennan Heart - Miles (End Credit Song).wav" WAVE INDEX 01 00:00:00 TRACK 04 AUDIO TITLE "Never Break Me (Toneshifterz Remix)" PERFORMER "Brennan Heart" ISRC NLE801300523 INDEX 00 03:52:00FILE "04 - Brennan Heart - Never Break Me (Toneshifterz Remix).wav" WAVE INDEX 01 00:00:00 TRACK 05 AUDIO TITLE "We Come & We Go (We R EOS Mix)" PERFORMER "Brennan Heart" ISRC NLE801300524 INDEX 00 03:42:68FILE "05 - Brennan Heart - We Come & We Go (We R EOS Mix).wav" WAVE INDEX 01 00:00:00 TRACK 06 AUDIO TITLE "Tonight Will Never Die" PERFORMER "Brennan Heart with Code Black" ISRC NLE801300525 INDEX 00 04:08:16FILE "06 - Brennan Heart with Code Black - Tonight Will Never Die.wav" WAVE INDEX 01 00:00:00 TRACK 07 AUDIO TITLE "Privelege 2 Be Born Again" PERFORMER "Brennan Heart" ISRC NLE801300526 INDEX 00 03:00:20FILE "07 - Brennan Heart - Privelege 2 Be Born Again.wav" WAVE INDEX 01 00:00:00 TRACK 08 AUDIO TITLE "Scrap The System (Defqon.1 Australia Anthem 2013)" PERFORMER "Brennan Heart" ISRC NLE801300539 INDEX 00 03:54:00FILE "08 - Brennan Heart - Scrap The System (Defqon.1 Australia Anthem 2013).wav" WAVE INDEX 01 00:00:00 TRACK 09 AUDIO TITLE "Wide Awake (EOS 2013 Mix)" PERFORMER "Brennan Heart" ISRC NLE801300527 INDEX 00 04:00:25FILE "09 - Brennan Heart - Wide Awake (EOS 2013 Mix).wav" WAVE INDEX 01 00:00:00 TRACK 10 AUDIO TITLE "F.I.F.O. (Original)" PERFORMER "Brennan Heart" ISRC NLE801300393 INDEX 00 03:39:15FILE "10 - Brennan Heart - F.I.F.O. (Original).wav" WAVE INDEX 01 00:00:00 TRACK 11 AUDIO TITLE "Life That We Dream Of (City2City)" PERFORMER "Brennan Heart" ISRC NLE801200142 INDEX 00 03:18:39FILE "11 - Brennan Heart - Life That We Dream Of (City2City).wav" WAVE INDEX 01 00:00:00 TRACK 12 AUDIO TITLE "We Can Escape" PERFORMER "Brennan Heart" ISRC NLE801200234 INDEX 00 03:51:57FILE "12 - Brennan Heart - We Can Escape.wav" WAVE INDEX 01 00:00:00 TRACK 13 AUDIO TITLE "Fight The Resistance" PERFORMER "Brennan Heart with Zatox" ISRC NLE801300438 INDEX 00 02:44:64FILE "13 - Brennan Heart with Zatox - Fight The Resistance.wav" WAVE INDEX 01 00:00:00 TRACK 14 AUDIO TITLE "Lose My Mind" PERFORMER "Brennan Heart with Wildstylez" ISRC NLE801200050 INDEX 00 03:06:18FILE "14 - Brennan Heart with Wildstylez - Lose My Mind.wav" WAVE INDEX 01 00:00:00 TRACK 15 AUDIO TITLE "Hardbass Junkie" PERFORMER "Brennan Heart" ISRC NLE801200180 INDEX 00 03:02:05FILE "15 - Brennan Heart - Hardbass Junkie.wav" WAVE INDEX 01 00:00:00 TRACK 16 AUDIO TITLE "Freaqshow Anthem" PERFORMER "Brennan Heart" ISRC NLE801200462 INDEX 00 03:37:46FILE "16 - Brennan Heart - Freaqshow Anthem.wav" WAVE INDEX 01 00:00:00 TRACK 17 AUDIO TITLE "Running Late (Brennan Heart & Code Black MF Earthquake Rawmix)" PERFORMER "Brennan Heart" ISRC NLE801200051 INDEX 00 03:06:68FILE "17 - Brennan Heart - Running Late (Brennan Heart & Code Black MF Earthquake Rawmix).wav" WAVE INDEX 01 00:00:00 TRACK 18 AUDIO TITLE "F.I.F.O. (Outbreak Remix)" PERFORMER "Brennan Heart" ISRC NLE801300528 INDEX 00 03:37:02FILE "18 - Brennan Heart - F.I.F.O. (Outbreak Remix).wav" WAVE INDEX 01 00:00:00 TRACK 19 AUDIO TITLE "Evolution Continues (EOS Intro)" PERFORMER "Brennan Heart" ISRC NLE801300529 INDEX 00 03:05:45FILE "19 - Brennan Heart - Evolution Continues (EOS Intro).wav" WAVE INDEX 01 00:00:00 TRACK 20 AUDIO TITLE "A Scattered Soul" PERFORMER "Brennan Heart" ISRC NLE801300530 INDEX 00 01:50:17FILE "20 - Brennan Heart - A Scattered Soul.wav" WAVE INDEX 01 00:00:00

_________________
Показать сообщения:    

Текущее время: Сегодня 11:56

Часовой пояс: GMT



Вы не можете начинать темы
Вы не можете отвечать на сообщения
Вы не можете редактировать свои сообщения
Вы не можете удалять свои сообщения
Вы не можете голосовать в опросах
Вы не можете прикреплять файлы к сообщениям
Вы не можете скачивать файлы