Важное объявление!
У Нас Все раздачи мультитрекерные, при нуле пиров в релизах, можете смело вставать на закачку!
 
Автор Сообщение

HUNTER

Стаж:
4 года 4 месяца
Сообщений:
56733

Репутация: 101

[+] [-]
Вне форума [Профиль] [ЛС]

The Outside Agency / Scenocide 101
Жанр: Hardcore
Год издания: 2005
Издатель (лейбл): Genosha Recordings
Номер по каталогу: GENCD01
Аудиокодек: FLAC (*.flac)
Тип рипа: tracks+.cue
Битрейт аудио: lossless
Продолжительность: 02:28:39
Источник (релизер): what.cd (Demoniac)

Треклист

CD1

01. The Outside Agency – Antichrist VIP
02. Theeq – A15E (TOA Remix)
03. The Enticer – Self Analysis (TOA Remix)
04. The Outside Agency – Frack
05. The Outside Agency – Acid Track #1
06. The Outside Agency – Waiting Till Dark
07. The Outside Agency & D'Spyre – Fire & Blood Revisited
08. The Outside Agency – Screaming Remake
09. The Outside Agency – The Shape-Shifting Master of Darkness (Old Version)
10. The Outside Agency – The Weather in My Mind
11. The Outside Agency – Dirty
12. Fracture 4 – Extreme Stress Reaction (TOA Remix)

CD2

01. The Outside Agency – Machine Slavery
02. The Outside Agency & Mindustries – Schermutselingen
03. The Outside Agency – Paroxysm
04. The Outside Agency – Acid Ttrack #2 : Causting Ingestion
05. The Outside Agency – Puddle Dynamics
06. The Outside Agency – Festum Fatuorum
07. The Outside Agency – Dark Serenity
08. Technohead – The Number One Contender (TOA Remix)
09. The Outside Agency – Dark at Last
10. The Outside Agency – Nothing is Random (Cyphre's Edit)
11. Petrochemical – Netherworld (TOA Remix)
12. The Outside Agency – Screaming Bootleg

Лог создания рипа

CD1

Exact Audio Copy V0.99 prebeta 5 from 4. May 2009
EAC extraction logfile from 19. June 2010, 0:45
Various / Scenocide 101 - Disc 1
Used drive : TSSTcorpDVD+-RW TS-U633F Adapter: 0 ID: 1
Read mode : SecureUtilize accurate stream : YesDefeat audio cache : YesMake use of C2 pointers : No
Read offset correction : 6Overread into Lead-In and Lead-Out : NoFill up missing offset samples with silence : YesDelete leading and trailing silent blocks : NoNull samples used in CRC calculations : YesUsed interface : Native Win32 interface for Win NT & 2000Gap handling : Appended to previous track
Used output format : User Defined EncoderSelected bitrate : 1024 kBit/sQuality : HighAdd ID3 tag : NoCommand line compressor : C:\Program Files\FLAC\flac.exeAdditional command line options : -V -8 -T "artist=%a" -T "title=%t" -T "album=%g" -T "date=%y" -T "tracknumber=%n" -T "genre=%m" %s
TOC of the extracted CD
Track | Start | Length | Start sector | End sector --------------------------------------------------------- 1 | 3:27.20 | 6:20.52 | 15545 | 44096 2 | 9:47.72 | 6:10.06 | 44097 | 71852 3 | 15:58.03 | 7:06.62 | 71853 | 103864 4 | 23:04.65 | 6:06.31 | 103865 | 131345 5 | 29:11.21 | 6:13.60 | 131346 | 159380 6 | 35:25.06 | 6:09.39 | 159381 | 187094 7 | 41:34.45 | 5:56.69 | 187095 | 213863 8 | 47:31.39 | 6:24.20 | 213864 | 242683 9 | 53:55.59 | 6:30.17 | 242684 | 271950 10 | 60:26.01 | 5:52.20 | 271951 | 298370 11 | 66:18.21 | 5:14.23 | 298371 | 321943 12 | 71:32.44 | 6:21.21 | 321944 | 350539
Track 1
Filename C:\Rips\FLAC\Various - Scenocide 101 - Disc 1 [2005]\01 The Outside Agency - Antichrist VIP.wav
Pre-gap length 0:03:29.26
Peak level 98.8 % Track quality 100.0 % Test CRC FF80DFFF Copy CRC FF80DFFF Accurately ripped (confidence 1) [91025262] Copy OK
Track 2
Filename C:\Rips\FLAC\Various - Scenocide 101 - Disc 1 [2005]\02 Theeq - A15E (The Outside Agency Remix).wav
Pre-gap length 0:00:15.29
Peak level 98.7 % Track quality 100.0 % Test CRC F5ADFAA9 Copy CRC F5ADFAA9 Accurately ripped (confidence 1) [A71D9F6A] Copy OK
Track 3
Filename C:\Rips\FLAC\Various - Scenocide 101 - Disc 1 [2005]\03 The Enticer - Self Analysis (The Outside Agency Remix).wav
Pre-gap length 0:00:21.28
Peak level 82.2 % Track quality 100.0 % Test CRC 518A4678 Copy CRC 518A4678 Accurately ripped (confidence 1) [D0F08C2E] Copy OK
Track 4
Filename C:\Rips\FLAC\Various - Scenocide 101 - Disc 1 [2005]\04 The Outside Agency - Frack.wav
Pre-gap length 0:00:12.22
Peak level 98.8 % Track quality 100.0 % Test CRC FBF5BE60 Copy CRC FBF5BE60 Accurately ripped (confidence 1) [D4703766] Copy OK
Track 5
Filename C:\Rips\FLAC\Various - Scenocide 101 - Disc 1 [2005]\05 The Outside Agency - Acid Track #1.wav
Pre-gap length 0:00:08.65
Peak level 100.0 % Track quality 100.0 % Test CRC 49F0923D Copy CRC 49F0923D Accurately ripped (confidence 1) [F3D3BA0A] Copy OK
Track 6
Filename C:\Rips\FLAC\Various - Scenocide 101 - Disc 1 [2005]\06 The Outside Agency - Waiting Till Dark.wav
Pre-gap length 0:00:49.32
Peak level 89.0 % Track quality 100.0 % Test CRC 3C7FD9DC Copy CRC 3C7FD9DC Accurately ripped (confidence 1) [19A0E011] Copy OK
Track 7
Filename C:\Rips\FLAC\Various - Scenocide 101 - Disc 1 [2005]\07 The Outside Agency & D'Spyre - Fire & Blood Revisited.wav
Pre-gap length 0:00:13.30
Peak level 98.8 % Track quality 100.0 % Test CRC FC726944 Copy CRC FC726944 Accurately ripped (confidence 1) [772D883A] Copy OK
Track 8
Filename C:\Rips\FLAC\Various - Scenocide 101 - Disc 1 [2005]\08 The Outside Agency - Screaming Remake.wav
Pre-gap length 0:00:09.80
Peak level 70.2 % Track quality 100.0 % Test CRC 28EA564D Copy CRC 28EA564D Accurately ripped (confidence 1) [3238DD6E] Copy OK
Track 9
Filename C:\Rips\FLAC\Various - Scenocide 101 - Disc 1 [2005]\09 The Outside Agency - The Shape-Shifting Master of Darkness (Old Version).wav
Pre-gap length 0:00:13.44
Peak level 89.0 % Track quality 100.0 % Test CRC E72A9483 Copy CRC E72A9483 Accurately ripped (confidence 1) [35EBE38F] Copy OK
Track 10
Filename C:\Rips\FLAC\Various - Scenocide 101 - Disc 1 [2005]\10 The Outside Agency - The Weather in My Mind.wav
Pre-gap length 0:00:30.93
Peak level 89.1 % Track quality 100.0 % Test CRC CBF3A627 Copy CRC CBF3A627 Accurately ripped (confidence 1) [38F767E3] Copy OK
Track 11
Filename C:\Rips\FLAC\Various - Scenocide 101 - Disc 1 [2005]\11 The Outside Agency - Dirty.wav
Pre-gap length 0:00:14.09
Peak level 99.9 % Track quality 100.0 % Test CRC B64854D3 Copy CRC B64854D3 Accurately ripped (confidence 1) [DBB70C44] Copy OK
Track 12
Filename C:\Rips\FLAC\Various - Scenocide 101 - Disc 1 [2005]\12 Fracture 4 - Extreme Stress Reaction (The Outside Agency Remix).wav
Pre-gap length 0:00:15.89
Peak level 84.1 % Track quality 100.0 % Test CRC AF048084 Copy CRC AF048084 Accurately ripped (confidence 1) [5309F523] Copy OK
All tracks accurately ripped
No errors occurred
End of status report

CD2

Exact Audio Copy V0.99 prebeta 5 from 4. May 2009
EAC extraction logfile from 19. June 2010, 1:22
The Outside Agency / Scenocide 101 Disc 2
Used drive : TSSTcorpDVD+-RW TS-U633F Adapter: 0 ID: 1
Read mode : SecureUtilize accurate stream : YesDefeat audio cache : YesMake use of C2 pointers : No
Read offset correction : 6Overread into Lead-In and Lead-Out : NoFill up missing offset samples with silence : YesDelete leading and trailing silent blocks : NoNull samples used in CRC calculations : YesUsed interface : Native Win32 interface for Win NT & 2000Gap handling : Appended to previous track
Used output format : User Defined EncoderSelected bitrate : 1024 kBit/sQuality : HighAdd ID3 tag : NoCommand line compressor : C:\Program Files\FLAC\flac.exeAdditional command line options : -V -8 -T "artist=%a" -T "title=%t" -T "album=%g" -T "date=%y" -T "tracknumber=%n" -T "genre=%m" %s
TOC of the extracted CD
Track | Start | Length | Start sector | End sector --------------------------------------------------------- 1 | 3:43.00 | 6:31.41 | 16725 | 46090 2 | 10:14.41 | 5:09.73 | 46091 | 69338 3 | 15:24.39 | 6:32.29 | 69339 | 98767 4 | 21:56.68 | 6:54.06 | 98768 | 129823 5 | 28:50.74 | 4:52.34 | 129824 | 151757 6 | 33:43.33 | 5:45.41 | 151758 | 177673 7 | 39:28.74 | 6:10.43 | 177674 | 205466 8 | 45:39.42 | 6:37.63 | 205467 | 235304 9 | 52:17.30 | 5:49.05 | 235305 | 261484 10 | 58:06.35 | 5:43.28 | 261485 | 287237 11 | 63:49.63 | 6:20.54 | 287238 | 315791 12 | 70:10.42 | 7:45.10 | 315792 | 350676
Track 1
Filename C:\Rips\FLAC\The Outside Agency - Scenocide 101 Disc 2 [2005]\01 The Outside Agency - The Outside Agency , Machine Slavery.wav
Pre-gap length 0:03:45.00
Peak level 94.2 % Track quality 100.0 % Test CRC B86DF29A Copy CRC B86DF29A Accurately ripped (confidence 1) [F9A11BE6] Copy OK
Track 2
Filename C:\Rips\FLAC\The Outside Agency - Scenocide 101 Disc 2 [2005]\02 The Outside Agency - The Outside Agency & Mindustries , Scherrmutzelingen ( with Mindustries).wav
Pre-gap length 0:00:10.46
Peak level 98.7 % Track quality 100.0 % Test CRC E02371D1 Copy CRC E02371D1 Accurately ripped (confidence 1) [E385571E] Copy OK
Track 3
Filename C:\Rips\FLAC\The Outside Agency - Scenocide 101 Disc 2 [2005]\03 The Outside Agency - The Outside Agency , Paroxysm.wav
Pre-gap length 0:00:08.73
Peak level 98.7 % Track quality 100.0 % Test CRC 5BEDB80C Copy CRC 5BEDB80C Accurately ripped (confidence 1) [CD93F829] Copy OK
Track 4
Filename C:\Rips\FLAC\The Outside Agency - Scenocide 101 Disc 2 [2005]\04 The Outside Agency - The Outside Agency , Acid track #2 - Causting Ingestion.wav
Pre-gap length 0:00:10.34
Peak level 94.3 % Track quality 99.9 % Test CRC 37E5A2F5 Copy CRC 37E5A2F5 Accurately ripped (confidence 1) [CCFF4DC3] Copy OK
Track 5
Filename C:\Rips\FLAC\The Outside Agency - Scenocide 101 Disc 2 [2005]\05 The Outside Agency - The Outside Agency , Puddel Dynamics.wav
Pre-gap length 0:00:06.02
Peak level 94.4 % Track quality 100.0 % Test CRC 443AC504 Copy CRC 443AC504 Accurately ripped (confidence 1) [9654298E] Copy OK
Track 6
Filename C:\Rips\FLAC\The Outside Agency - Scenocide 101 Disc 2 [2005]\06 The Outside Agency - The Outside Agency , Festum Fatuorum.wav
Pre-gap length 0:00:09.20
Peak level 94.3 % Track quality 100.0 % Test CRC 1E658F52 Copy CRC 1E658F52 Accurately ripped (confidence 1) [C1F13FFD] Copy OK
Track 7
Filename C:\Rips\FLAC\The Outside Agency - Scenocide 101 Disc 2 [2005]\07 The Outside Agency - The Outside Agency , Dark Serenity.wav
Pre-gap length 0:00:12.72
Peak level 98.8 % Track quality 99.9 % Test CRC 0DD25B64 Copy CRC 0DD25B64 Accurately ripped (confidence 1) [0DC4E13F] Copy OK
Track 8
Filename C:\Rips\FLAC\The Outside Agency - Scenocide 101 Disc 2 [2005]\08 The Outside Agency - Technohead , The numer one Contender (TOA RMX).wav
Pre-gap length 0:00:13.82
Peak level 100.0 % Track quality 99.9 % Test CRC 330EFA7B Copy CRC 330EFA7B Accurately ripped (confidence 1) [8D8F32FB] Copy OK
Track 9
Filename C:\Rips\FLAC\The Outside Agency - Scenocide 101 Disc 2 [2005]\09 The Outside Agency - The Outside Agency , Dark at Last.wav
Pre-gap length 0:00:15.45
Peak level 89.0 % Track quality 100.0 % Test CRC B8FD154C Copy CRC B8FD154C Accurately ripped (confidence 1) [972E02B0] Copy OK
Track 10
Filename C:\Rips\FLAC\The Outside Agency - Scenocide 101 Disc 2 [2005]\10 The Outside Agency - The Outside Agency , Nothing is Random (Cypher's edit).wav
Pre-gap length 0:00:12.14
Peak level 79.3 % Track quality 100.0 % Test CRC 61126210 Copy CRC 61126210 Accurately ripped (confidence 1) [7FD2525E] Copy OK
Track 11
Filename C:\Rips\FLAC\The Outside Agency - Scenocide 101 Disc 2 [2005]\11 The Outside Agency - Petrochemical , Netherworld (TOA RMX).wav
Pre-gap length 0:00:14.45
Peak level 94.4 % Track quality 100.0 % Test CRC CA8AFBA4 Copy CRC CA8AFBA4 Accurately ripped (confidence 1) [5942BEBF] Copy OK
Track 12
Filename C:\Rips\FLAC\The Outside Agency - Scenocide 101 Disc 2 [2005]\12 The Outside Agency - The Outside Agency , Screaming Bootleg.wav
Pre-gap length 0:00:11.62
Peak level 89.0 % Track quality 100.0 % Test CRC 343C4DD2 Copy CRC 343C4DD2 Accurately ripped (confidence 1) [415D9E4D] Copy OK
All tracks accurately ripped
No errors occurred
End of status report

Содержание индексной карты (.CUE)

CD1

REM GENRE DarkcoreREM DATE 2005REM DISCID CE11720CFILE "101 The Outside Agency - Antichrist VIP.wav" WAVE TRACK 01 AUDIO TITLE "Antichrist VIP" PERFORMER "The Outside Agency" PREGAP 03:27:20 INDEX 01 00:00:00FILE "102 Theeq - A15E (TOA Remix).wav" WAVE TRACK 02 AUDIO TITLE "A15E (TOA Remix)" PERFORMER "Theeq" INDEX 00 06:05:30 INDEX 01 00:00:00FILE "103 The Enticer - Self Analysis (TOA Remix).wav" WAVE TRACK 03 AUDIO TITLE "Self Analysis (TOA Remix)" PERFORMER "The Enticer" INDEX 00 05:48:60 INDEX 01 00:00:00FILE "104 The Outside Agency - Frack.wav" WAVE TRACK 04 AUDIO TITLE "Frack" PERFORMER "The Outside Agency" INDEX 00 06:54:45 INDEX 01 00:00:00FILE "105 The Outside Agency - Acid Track #1.wav" WAVE TRACK 05 AUDIO TITLE "Acid Track #1" PERFORMER "The Outside Agency" INDEX 00 05:57:57 INDEX 01 00:00:00FILE "106 The Outside Agency - Waiting Till Dark.wav" WAVE TRACK 06 AUDIO TITLE "Waiting Till Dark" PERFORMER "The Outside Agency" INDEX 00 05:24:36 INDEX 01 00:00:00FILE "107 The Outside Agency & D'Spyre - Fire & Blood Revisited.wav" WAVE TRACK 07 AUDIO TITLE "Fire & Blood Revisited" PERFORMER "The Outside Agency & D'Spyre" INDEX 00 05:56:16 INDEX 01 00:00:00FILE "108 The Outside Agency - Screaming Remake.wav" WAVE TRACK 08 AUDIO TITLE "Screaming Remake" PERFORMER "The Outside Agency" INDEX 00 05:47:09 INDEX 01 00:00:00FILE "109 The Outside Agency - The Shape-Shifting Master of Darkness (Old Version).wav" WAVE TRACK 09 AUDIO TITLE "The Shape-Shifting Master of Darkness (Old Version)" PERFORMER "The Outside Agency" INDEX 00 06:10:62 INDEX 01 00:00:00FILE "110 The Outside Agency - The Weather in My Mind.wav" WAVE TRACK 10 AUDIO TITLE "The Weather in My Mind" PERFORMER "The Outside Agency" INDEX 00 05:59:22 INDEX 01 00:00:00FILE "111 The Outside Agency - Dirty.wav" WAVE TRACK 11 AUDIO TITLE "Dirty" PERFORMER "The Outside Agency" INDEX 00 05:38:13 INDEX 01 00:00:00FILE "112 Fracture 4 - Extreme Stress Reaction (TOA Remix).wav" WAVE TRACK 12 AUDIO TITLE "Extreme Stress Reaction (TOA Remix)" PERFORMER "Fracture 4" INDEX 00 04:58:31 INDEX 01 00:00:00

CD2

REM GENRE DarkcoreREM DATE 2005REM DISCID A311640CFILE "201 The Outside Agency - Machine Slavery.wav" WAVE TRACK 01 AUDIO TITLE "Machine Slavery" PERFORMER "The Outside Agency" PREGAP 03:43:00 INDEX 01 00:00:00FILE "202 The Outside Agency & Mindustries - Schermutselingen.wav" WAVE TRACK 02 AUDIO TITLE "Schermutselingen" PERFORMER "The Outside Agency & Mindustries" INDEX 00 06:21:06 INDEX 01 00:00:00FILE "203 The Outside Agency - Paroxysm.wav" WAVE TRACK 03 AUDIO TITLE "Paroxysm" PERFORMER "The Outside Agency" INDEX 00 05:01:18 INDEX 01 00:00:00FILE "204 The Outside Agency - Acid track #2 Causting Ingestion.wav" WAVE TRACK 04 AUDIO TITLE "Acid Ttrack #2 : Causting Ingestion" PERFORMER "The Outside Agency" INDEX 00 06:22:03 INDEX 01 00:00:00FILE "205 The Outside Agency - Puddle Dynamics.wav" WAVE TRACK 05 AUDIO TITLE "Puddle Dynamics" PERFORMER "The Outside Agency" INDEX 00 06:48:04 INDEX 01 00:00:00FILE "206 The Outside Agency - Festum Fatuorum.wav" WAVE TRACK 06 AUDIO TITLE "Festum Fatuorum" PERFORMER "The Outside Agency" INDEX 00 04:43:19 INDEX 01 00:00:00FILE "207 The Outside Agency - Dark Serenity.wav" WAVE TRACK 07 AUDIO TITLE "Dark Serenity" PERFORMER "The Outside Agency" INDEX 00 05:32:62 INDEX 01 00:00:00FILE "208 Technohead - The Number One Contender (TOA Remix).wav" WAVE TRACK 08 AUDIO TITLE "The Number One Contender (TOA Remix)" PERFORMER "Technohead" INDEX 00 05:56:56 INDEX 01 00:00:00FILE "209 The Outside Agency - Dark at Last.wav" WAVE TRACK 09 AUDIO TITLE "Dark at Last" PERFORMER "The Outside Agency" INDEX 00 06:22:29 INDEX 01 00:00:00FILE "210 The Outside Agency - Nothing is Random (Cyphre's Edit).wav" WAVE TRACK 10 AUDIO TITLE "Nothing is Random (Cyphre's Edit)" PERFORMER "The Outside Agency" INDEX 00 05:36:69 INDEX 01 00:00:00FILE "211 Petrochemical - Netherworld (TOA Remix).wav" WAVE TRACK 11 AUDIO TITLE "Netherworld (TOA Remix)" PERFORMER "Petrochemical" INDEX 00 05:28:69 INDEX 01 00:00:00FILE "212 The Outside Agency - Screaming Bootleg.wav" WAVE TRACK 12 AUDIO TITLE "Screaming Bootleg" PERFORMER "The Outside Agency" INDEX 00 06:09:07 INDEX 01 00:00:00

_________________
Показать сообщения:    

Текущее время: Сегодня 22:10

Часовой пояс: GMT



Вы не можете начинать темы
Вы не можете отвечать на сообщения
Вы не можете редактировать свои сообщения
Вы не можете удалять свои сообщения
Вы не можете голосовать в опросах
Вы не можете прикреплять файлы к сообщениям
Вы не можете скачивать файлы