Ивановский Торрент трекер
Яндекс.Погода
 

[Цитировать]
HUNTER

Demolition Part 7
Жанр: Hardcore, Techno, Industrial, Gabber
Страна-производитель диска: Netherlands
Год издания: 2006
Издатель (лейбл): The Third Movement
Номер по каталогу: T3RDM0103
Аудиокодек: FLAC (*.flac)
Тип рипа: tracks+.cue
Битрейт аудио: lossless
Продолжительность: CD1 - 1:18:27; CD2 - 1:18:40
Источник (релизер): Собственный рип
Наличие сканов в содержимом раздачи: да, 600dpi PNG
Треклист:
CD1:
01. Promo - Rage Ignites The Fire
02. Nosferatu - Disorder Of The Mind
03. The Outside Agency - The New Master
04. Hard Creation - I Will Have That Power 2006 (Stunned Guys Remix)
05. Art Of Fighters Feat. Mc Justice - Premonition
06. Dr. Macabre - Hardcore Basic
07. Electronic Pig - IM Electronic
08. D-Passion - Twist Your Brain
09. Broken Rules - Voltage Freak
10. Promo - As The Beat Goes On
11. Noize Supressor - Fuck It
12. Emphasis - Bust Your Ass
13. The DJ Producer - Noise Annoyz
14. Promo & Lenny Dee - Down With Nothing
15. Scan 7 - You Have The Right (D-Passion Remix)
16. Delta 9 - No More Regrets (Lenny Dee & Delta 9 Remix)
CD2:
01. Promo - We Got To Advance
02. D-Passion - Change History
03. Meccano Twins - Pure Intensions
04. T-Junction & Osiris - Adrenaline Shotz
05. Hectic Fence - Weapon Of De-Fence
06. Masoko Solo - Pessa Pessa (Promo Remix)
07. Armageddon Project & Promo - Poisoned From Within
08. Deceiver - Panic
09. Tha Playah - The Explained
10. Coreporation - Kick It Wicked
11. Alex B - Poppencast Ink
12. Void Settler - Nightfall Deceit (Rude Awakening Remix)
13. The Outside Agency - Pure Darkness
14. Tommyknocker - Finally
15. Unexist & Lenny Dee - Victim
16. Hellfish - Head Grit (Promo Remix)

Логи создания рипов

CD1

Exact Audio Copy V1.0 beta 1 from 15. November 2010
EAC extraction logfile from 26. September 2012, 21:47
Various / Demolition Part 7 (Disc 1)
Used drive : ASUS DRW-24B3ST Adapter: 3 ID: 0
Read mode : SecureUtilize accurate stream : YesDefeat audio cache : YesMake use of C2 pointers : No
Read offset correction : 6Overread into Lead-In and Lead-Out : NoFill up missing offset samples with silence : YesDelete leading and trailing silent blocks : NoNull samples used in CRC calculations : YesUsed interface : Native Win32 interface for Win NT & 2000Gap handling : Appended to previous track
Used output format : Пользовательский кодировщикSelected bitrate : 1024 kBit/sQuality : HighAdd ID3 tag : YesCommand line compressor : C:\Program Files\Exact Audio Copy\FLAC\FLAC.EXEAdditional command line options : -8 -V -T "ARTIST=%a" -T "TITLE=%t" -T "ALBUM=%g" -T "DATE=%y" -T "TRACKNUMBER=%n" -T "GENRE=%m" -T "COMMENT=EAC FLAC -8" %s
TOC of the extracted CD
Track | Start | Length | Start sector | End sector --------------------------------------------------------- 1 | 0:00.00 | 4:50.72 | 0 | 21821 2 | 4:50.72 | 4:51.17 | 21822 | 43663 3 | 9:42.14 | 5:09.01 | 43664 | 66839 4 | 14:51.15 | 5:53.08 | 66840 | 93322 5 | 20:44.23 | 5:06.56 | 93323 | 116328 6 | 25:51.04 | 5:00.30 | 116329 | 138858 7 | 30:51.34 | 3:52.03 | 138859 | 156261 8 | 34:43.37 | 5:01.48 | 156262 | 178884 9 | 39:45.10 | 3:30.44 | 178885 | 194678 10 | 43:15.54 | 5:41.55 | 194679 | 220308 11 | 48:57.34 | 4:10.24 | 220309 | 239082 12 | 53:07.58 | 5:44.62 | 239083 | 264944 13 | 58:52.45 | 3:27.00 | 264945 | 280469 14 | 62:19.45 | 5:24.25 | 280470 | 304794 15 | 67:43.70 | 6:15.26 | 304795 | 332945 16 | 73:59.21 | 4:27.32 | 332946 | 353002
Track 1
Filename C:\Users\Администратор\Desktop\Audio\01. Promo - Rage Ignites The Fire.wav
Pre-gap length 0:00:02.00
Peak level 97.7 % Extraction speed 4.0 X Track quality 100.0 % Test CRC DF065443 Copy CRC DF065443 Accurately ripped (confidence 1) [3E714AC2] Copy OK
Track 2
Filename C:\Users\Администратор\Desktop\Audio\02. Nosferatu - Disorder Of The Mind.wav
Peak level 97.7 % Extraction speed 3.7 X Track quality 99.9 % Test CRC 0AB97E4F Copy CRC 0AB97E4F Accurately ripped (confidence 1) [A449B0F6] Copy OK
Track 3
Filename C:\Users\Администратор\Desktop\Audio\03. The Outside Agency - The New Master.wav
Peak level 97.7 % Extraction speed 4.9 X Track quality 100.0 % Test CRC 2E29016E Copy CRC 2E29016E Accurately ripped (confidence 1) [8B60D181] Copy OK
Track 4
Filename C:\Users\Администратор\Desktop\Audio\04. Hard Creation - I Will Have That Power 2006 (Stunned Guys Remix).wav
Peak level 97.7 % Extraction speed 5.4 X Track quality 100.0 % Test CRC B1D37830 Copy CRC B1D37830 Accurately ripped (confidence 1) [B7D932F6] Copy OK
Track 5
Filename C:\Users\Администратор\Desktop\Audio\05. Art Of Fighters Feat. Mc Justice - Premonition.wav
Peak level 97.7 % Extraction speed 5.7 X Track quality 100.0 % Test CRC 17D3BB25 Copy CRC 17D3BB25 Accurately ripped (confidence 1) [59C7D405] Copy OK
Track 6
Filename C:\Users\Администратор\Desktop\Audio\06. Dr. Macabre - Hardcore Basic.wav
Peak level 97.7 % Extraction speed 6.0 X Track quality 100.0 % Test CRC 324718E3 Copy CRC 324718E3 Accurately ripped (confidence 1) [852EAADF] Copy OK
Track 7
Filename C:\Users\Администратор\Desktop\Audio\07. Electronic Pig - IM Electronic.wav
Peak level 97.7 % Extraction speed 6.1 X Track quality 100.0 % Test CRC C9677BA6 Copy CRC C9677BA6 Accurately ripped (confidence 1) [43E8BA51] Copy OK
Track 8
Filename C:\Users\Администратор\Desktop\Audio\08. D-Passion - Twist Your Brain.wav
Peak level 97.7 % Extraction speed 6.5 X Track quality 100.0 % Test CRC 855DBFB0 Copy CRC 855DBFB0 Accurately ripped (confidence 1) [11E3C0C7] Copy OK
Track 9
Filename C:\Users\Администратор\Desktop\Audio\09. Broken Rules - Voltage Freak.wav
Peak level 97.7 % Extraction speed 6.4 X Track quality 100.0 % Test CRC BD03CE0C Copy CRC BD03CE0C Accurately ripped (confidence 1) [161D32D8] Copy OK
Track 10
Filename C:\Users\Администратор\Desktop\Audio\10. Promo - As The Beat Goes On.wav
Peak level 97.7 % Extraction speed 7.1 X Track quality 100.0 % Test CRC 27CC0EF5 Copy CRC 27CC0EF5 Accurately ripped (confidence 1) [F50A66C9] Copy OK
Track 11
Filename C:\Users\Администратор\Desktop\Audio\11. Noize Supressor - Fuck It.wav
Peak level 97.7 % Extraction speed 7.0 X Track quality 100.0 % Test CRC 7885B37F Copy CRC 7885B37F Accurately ripped (confidence 1) [16E71C05] Copy OK
Track 12
Filename C:\Users\Администратор\Desktop\Audio\12. Emphasis - Bust Your Ass.wav
Peak level 97.7 % Extraction speed 7.5 X Track quality 100.0 % Test CRC F9725C41 Copy CRC F9725C41 Accurately ripped (confidence 1) [64DFFE02] Copy OK
Track 13
Filename C:\Users\Администратор\Desktop\Audio\13. The DJ Producer - Noise Annoyz.wav
Peak level 97.7 % Extraction speed 7.3 X Track quality 100.0 % Test CRC 7D4BDA03 Copy CRC 7D4BDA03 Accurately ripped (confidence 1) [64CA2D55] Copy OK
Track 14
Filename C:\Users\Администратор\Desktop\Audio\14. Promo & Lenny Dee - Down With Nothing.wav
Peak level 97.7 % Extraction speed 8.0 X Track quality 100.0 % Test CRC E65AE01F Copy CRC E65AE01F Accurately ripped (confidence 1) [A53DD034] Copy OK
Track 15
Filename C:\Users\Администратор\Desktop\Audio\15. Scan 7 - You Have The Right (D-Passion Remix).wav
Peak level 97.7 % Extraction speed 8.3 X Track quality 100.0 % Test CRC 5FBE45A3 Copy CRC 5FBE45A3 Accurately ripped (confidence 1) [0799521B] Copy OK
Track 16
Filename C:\Users\Администратор\Desktop\Audio\16. Delta 9 - No More Regrets (Lenny Dee & Delta 9 Remix).wav
Peak level 97.7 % Extraction speed 8.2 X Track quality 100.0 % Test CRC 89D80D6A Copy CRC 89D80D6A Accurately ripped (confidence 1) [D170DBEB] Copy OK
All tracks accurately ripped
No errors occurred
End of status report
==== Log checksum 8071B461CB45C1810B05F55288C4AE5FBA6DC4FED922739130C2B2A05CA764B4 ====

CD2

Exact Audio Copy V1.0 beta 1 from 15. November 2010
EAC extraction logfile from 26. September 2012, 22:18
Various / Demolition Part 7 (Disc 2)
Used drive : ASUS DRW-24B3ST Adapter: 3 ID: 0
Read mode : SecureUtilize accurate stream : YesDefeat audio cache : YesMake use of C2 pointers : No
Read offset correction : 6Overread into Lead-In and Lead-Out : NoFill up missing offset samples with silence : YesDelete leading and trailing silent blocks : NoNull samples used in CRC calculations : YesUsed interface : Native Win32 interface for Win NT & 2000Gap handling : Appended to previous track
Used output format : Пользовательский кодировщикSelected bitrate : 1024 kBit/sQuality : HighAdd ID3 tag : YesCommand line compressor : C:\Program Files\Exact Audio Copy\FLAC\FLAC.EXEAdditional command line options : -8 -V -T "ARTIST=%a" -T "TITLE=%t" -T "ALBUM=%g" -T "DATE=%y" -T "TRACKNUMBER=%n" -T "GENRE=%m" -T "COMMENT=EAC FLAC -8" %s
TOC of the extracted CD
Track | Start | Length | Start sector | End sector --------------------------------------------------------- 1 | 0:00.00 | 5:34.66 | 0 | 25115 2 | 5:34.66 | 4:13.53 | 25116 | 44143 3 | 9:48.44 | 3:57.06 | 44144 | 61924 4 | 13:45.50 | 5:04.59 | 61925 | 84783 5 | 18:50.34 | 4:16.00 | 84784 | 103983 6 | 23:06.34 | 5:57.09 | 103984 | 130767 7 | 29:03.43 | 4:24.10 | 130768 | 150577 8 | 33:27.53 | 4:08.50 | 150578 | 169227 9 | 37:36.28 | 5:32.70 | 169228 | 194197 10 | 43:09.23 | 4:21.42 | 194198 | 213814 11 | 47:30.65 | 4:44.02 | 213815 | 235116 12 | 52:14.67 | 5:28.07 | 235117 | 259723 13 | 57:42.74 | 4:45.19 | 259724 | 281117 14 | 62:28.18 | 5:03.61 | 281118 | 303903 15 | 67:32.04 | 4:20.62 | 303904 | 323465 16 | 71:52.66 | 6:47.05 | 323466 | 353995
Track 1
Filename C:\Users\Администратор\Desktop\Audio\01. Promo - We Got To Advance.wav
Pre-gap length 0:00:02.00
Peak level 97.7 % Extraction speed 4.1 X Track quality 100.0 % Test CRC 07F5B6F0 Copy CRC 07F5B6F0 Accurately ripped (confidence 1) [39A236C8] Copy OK
Track 2
Filename C:\Users\Администратор\Desktop\Audio\02. D-Passion - Change History.wav
Peak level 97.7 % Extraction speed 3.6 X Track quality 99.9 % Test CRC 18313EA5 Copy CRC 18313EA5 Accurately ripped (confidence 1) [B8EC1925] Copy OK
Track 3
Filename C:\Users\Администратор\Desktop\Audio\03. Meccano Twins - Pure Intensions.wav
Peak level 97.7 % Extraction speed 3.7 X Track quality 99.9 % Test CRC F96B837C Copy CRC F96B837C Accurately ripped (confidence 1) [B88B2EFC] Copy OK
Track 4
Filename C:\Users\Администратор\Desktop\Audio\04. T-Junction & Osiris - Adrenaline Shotz.wav
Peak level 97.7 % Extraction speed 5.2 X Track quality 100.0 % Test CRC B1511DE7 Copy CRC B1511DE7 Accurately ripped (confidence 1) [5CAAFF6D] Copy OK
Track 5
Filename C:\Users\Администратор\Desktop\Audio\05. Hectic Fence - Weapon Of De-Fence.wav
Peak level 97.7 % Extraction speed 4.3 X Track quality 99.9 % Test CRC B1A0E67A Copy CRC B1A0E67A Accurately ripped (confidence 1) [89F47FAA] Copy OK
Track 6
Filename C:\Users\Администратор\Desktop\Audio\06. Masoko Solo - Pessa Pessa (Promo Remix).wav
Peak level 97.7 % Extraction speed 6.0 X Track quality 100.0 % Test CRC 5088019D Copy CRC 5088019D Accurately ripped (confidence 1) [FDF9791F] Copy OK
Track 7
Filename C:\Users\Администратор\Desktop\Audio\07. Armageddon Project & Promo - Poisoned From Within.wav
Peak level 97.7 % Extraction speed 6.1 X Track quality 100.0 % Test CRC 78B3945C Copy CRC 78B3945C Accurately ripped (confidence 1) [189809A7] Copy OK
Track 8
Filename C:\Users\Администратор\Desktop\Audio\08. Deceiver - Panic.wav
Peak level 97.7 % Extraction speed 6.3 X Track quality 100.0 % Test CRC 95D903CE Copy CRC 95D903CE Accurately ripped (confidence 1) [730E38A5] Copy OK
Track 9
Filename C:\Users\Администратор\Desktop\Audio\09. Tha Playah - The Explained.wav
Peak level 97.7 % Extraction speed 6.8 X Track quality 100.0 % Test CRC A0873F3E Copy CRC A0873F3E Accurately ripped (confidence 1) [68117005] Copy OK
Track 10
Filename C:\Users\Администратор\Desktop\Audio\10. Coreporation - Kick It Wicked.wav
Peak level 97.7 % Extraction speed 6.9 X Track quality 100.0 % Test CRC 648723AC Copy CRC 648723AC Accurately ripped (confidence 1) [EB711B58] Copy OK
Track 11
Filename C:\Users\Администратор\Desktop\Audio\11. Alex B - Poppencast Ink.wav
Peak level 97.7 % Extraction speed 7.2 X Track quality 100.0 % Test CRC 4F167C09 Copy CRC 4F167C09 Accurately ripped (confidence 1) [26BB7E5C] Copy OK
Track 12
Filename C:\Users\Администратор\Desktop\Audio\12. Void Settler - Nightfall Deceit (Rude Awakening Remix).wav
Peak level 97.7 % Extraction speed 6.2 X Track quality 99.9 % Test CRC F594FF2E Copy CRC F594FF2E Accurately ripped (confidence 1) [00AA2416] Copy OK
Track 13
Filename C:\Users\Администратор\Desktop\Audio\13. The Outside Agency - Pure Darkness.wav
Peak level 97.7 % Extraction speed 6.3 X Track quality 99.9 % Test CRC F0437AD6 Copy CRC F0437AD6 Accurately ripped (confidence 1) [60767DA7] Copy OK
Track 14
Filename C:\Users\Администратор\Desktop\Audio\14. Tommyknocker - Finally.wav
Peak level 97.7 % Extraction speed 6.5 X Track quality 99.9 % Test CRC 2B50B107 Copy CRC 2B50B107 Accurately ripped (confidence 1) [27BA02D5] Copy OK
Track 15
Filename C:\Users\Администратор\Desktop\Audio\15. Unexist & Lenny Dee - Victim.wav
Peak level 97.7 % Extraction speed 8.0 X Track quality 100.0 % Test CRC 0FFEAE10 Copy CRC 0FFEAE10 Accurately ripped (confidence 1) [4EB57F57] Copy OK
Track 16
Filename C:\Users\Администратор\Desktop\Audio\16. Hellfish - Head Grit (Promo Remix).wav
Peak level 97.7 % Extraction speed 8.6 X Track quality 100.0 % Test CRC 6F89E911 Copy CRC 6F89E911 Accurately ripped (confidence 1) [1FBD24DD] Copy OK
All tracks accurately ripped
No errors occurred
End of status report
==== Log checksum 141BF7DFF34524D71417C2AD993C616E5CF88265B1ACD4E7A4B09F2CD209F2E6 ====

Содержание индексных карт (.CUE)

CD1

REM GENRE HardcoreREM DATE 2006REM DISCID 01126210REM COMMENT "ExactAudioCopy v1.0b1"PERFORMER "Various"TITLE "Demolition Part 7 (Disc 1)"FILE "01. Promo - Rage Ignites The Fire.wav" WAVE TRACK 01 AUDIO TITLE "Rage Ignites The Fire" PERFORMER "Promo" INDEX 01 00:00:00FILE "02. Nosferatu - Disorder Of The Mind.wav" WAVE TRACK 02 AUDIO TITLE "Disorder Of The Mind" PERFORMER "Nosferatu" INDEX 01 00:00:00FILE "03. The Outside Agency - The New Master.wav" WAVE TRACK 03 AUDIO TITLE "The New Master" PERFORMER "The Outside Agency" INDEX 01 00:00:00FILE "04. Hard Creation - I Will Have That Power 2006 (Stunned Guys Remix).wav" WAVE TRACK 04 AUDIO TITLE "I Will Have That Power 2006 (Stunned Guys Remix)" PERFORMER "Hard Creation" INDEX 01 00:00:00FILE "05. Art Of Fighters Feat. Mc Justice - Premonition.wav" WAVE TRACK 05 AUDIO TITLE "Premonition" PERFORMER "Art Of Fighters Feat. Mc Justice" INDEX 01 00:00:00FILE "06. Dr. Macabre - Hardcore Basic.wav" WAVE TRACK 06 AUDIO TITLE "Hardcore Basic" PERFORMER "Dr. Macabre" INDEX 01 00:00:00FILE "07. Electronic Pig - IM Electronic.wav" WAVE TRACK 07 AUDIO TITLE "IM Electronic" PERFORMER "Electronic Pig" INDEX 01 00:00:00FILE "08. D-Passion - Twist Your Brain.wav" WAVE TRACK 08 AUDIO TITLE "Twist Your Brain" PERFORMER "D-Passion" INDEX 01 00:00:00FILE "09. Broken Rules - Voltage Freak.wav" WAVE TRACK 09 AUDIO TITLE "Voltage Freak" PERFORMER "Broken Rules" INDEX 01 00:00:00FILE "10. Promo - As The Beat Goes On.wav" WAVE TRACK 10 AUDIO TITLE "As The Beat Goes On" PERFORMER "Promo" INDEX 01 00:00:00FILE "11. Noize Supressor - Fuck It.wav" WAVE TRACK 11 AUDIO TITLE "Fuck It" PERFORMER "Noize Supressor" INDEX 01 00:00:00FILE "12. Emphasis - Bust Your Ass.wav" WAVE TRACK 12 AUDIO TITLE "Bust Your Ass" PERFORMER "Emphasis" INDEX 01 00:00:00FILE "13. The DJ Producer - Noise Annoyz.wav" WAVE TRACK 13 AUDIO TITLE "Noise Annoyz" PERFORMER "The DJ Producer" INDEX 01 00:00:00FILE "14. Promo & Lenny Dee - Down With Nothing.wav" WAVE TRACK 14 AUDIO TITLE "Down With Nothing" PERFORMER "Promo & Lenny Dee" INDEX 01 00:00:00FILE "15. Scan 7 - You Have The Right (D-Passion Remix).wav" WAVE TRACK 15 AUDIO TITLE "You Have The Right (D-Passion Remix)" PERFORMER "Scan 7" INDEX 01 00:00:00FILE "16. Delta 9 - No More Regrets (Lenny Dee & Delta 9 Remix).wav" WAVE TRACK 16 AUDIO TITLE "No More Regrets (Lenny Dee & Delta 9 Remix)" PERFORMER "Delta 9" INDEX 01 00:00:00

CD2

REM GENRE HardcoreREM DATE 2006REM DISCID DD126F10REM COMMENT "ExactAudioCopy v1.0b1"PERFORMER "Various"TITLE "Demolition Part 7 (Disc 2)"FILE "01. Promo - We Got To Advance.wav" WAVE TRACK 01 AUDIO TITLE "We Got To Advance" PERFORMER "Promo" INDEX 01 00:00:00FILE "02. D-Passion - Change History.wav" WAVE TRACK 02 AUDIO TITLE "Change History" PERFORMER "D-Passion" INDEX 01 00:00:00FILE "03. Meccano Twins - Pure Intensions.wav" WAVE TRACK 03 AUDIO TITLE "Pure Intensions" PERFORMER "Meccano Twins" INDEX 01 00:00:00FILE "04. T-Junction & Osiris - Adrenaline Shotz.wav" WAVE TRACK 04 AUDIO TITLE "Adrenaline Shotz" PERFORMER "T-Junction & Osiris" INDEX 01 00:00:00FILE "05. Hectic Fence - Weapon Of De-Fence.wav" WAVE TRACK 05 AUDIO TITLE "Weapon Of De-Fence" PERFORMER "Hectic Fence" INDEX 01 00:00:00FILE "06. Masoko Solo - Pessa Pessa (Promo Remix).wav" WAVE TRACK 06 AUDIO TITLE "Pessa Pessa (Promo Remix)" PERFORMER "Masoko Solo" INDEX 01 00:00:00FILE "07. Armageddon Project & Promo - Poisoned From Within.wav" WAVE TRACK 07 AUDIO TITLE "Poisoned From Within" PERFORMER "Armageddon Project & Promo" INDEX 01 00:00:00FILE "08. Deceiver - Panic.wav" WAVE TRACK 08 AUDIO TITLE "Panic" PERFORMER "Deceiver" INDEX 01 00:00:00FILE "09. Tha Playah - The Explained.wav" WAVE TRACK 09 AUDIO TITLE "The Explained" PERFORMER "Tha Playah" INDEX 01 00:00:00FILE "10. Coreporation - Kick It Wicked.wav" WAVE TRACK 10 AUDIO TITLE "Kick It Wicked" PERFORMER "Coreporation" INDEX 01 00:00:00FILE "11. Alex B - Poppencast Ink.wav" WAVE TRACK 11 AUDIO TITLE "Poppencast Ink" PERFORMER "Alex B" INDEX 01 00:00:00FILE "12. Void Settler - Nightfall Deceit (Rude Awakening Remix).wav" WAVE TRACK 12 AUDIO TITLE "Nightfall Deceit (Rude Awakening Remix)" PERFORMER "Void Settler" INDEX 01 00:00:00FILE "13. The Outside Agency - Pure Darkness.wav" WAVE TRACK 13 AUDIO TITLE "Pure Darkness" PERFORMER "The Outside Agency" INDEX 01 00:00:00FILE "14. Tommyknocker - Finally.wav" WAVE TRACK 14 AUDIO TITLE "Finally" PERFORMER "Tommyknocker" INDEX 01 00:00:00FILE "15. Unexist & Lenny Dee - Victim.wav" WAVE TRACK 15 AUDIO TITLE "Victim" PERFORMER "Unexist & Lenny Dee" INDEX 01 00:00:00FILE "16. Hellfish - Head Grit (Promo Remix).wav" WAVE TRACK 16 AUDIO TITLE "Head Grit (Promo Remix)" PERFORMER "Hellfish" INDEX 01 00:00:00


Показать сообщения:    

Текущее время: 16-Дек 03:44

Часовой пояс: UTC ± 0


Вы не можете начинать темы
Вы не можете отвечать на сообщения
Вы не можете редактировать свои сообщения
Вы не можете удалять свои сообщения
Вы не можете голосовать в опросах
Вы не можете прикреплять файлы к сообщениям
Вы не можете скачивать файлы

!ВНИМАНИЕ!
Сайт не предоставляет электронные версии произведений, а занимается лишь коллекционированием и каталогизацией ссылок, присылаемых и публикуемых на форуме нашими читателями. Если вы являетесь правообладателем какого-либо представленного материала и не желаете, чтобы ссылка на него находилась в нашем каталоге, свяжитесь с нами, и мы незамедлительно удалим ее. Файлы для обмена на трекере предоставлены пользователями сайта, и администрация не несет ответственности за их содержание. Просьба не заливать файлы, защищенные авторскими правами, а также файлы нелегального содержания!