Важное объявление!
У Нас Все раздачи мультитрекерные, при нуле пиров в релизах, можете смело вставать на закачку!
Статистика раздачи
Размер:     |    Зарегистрирован:     |    Скачан:     |   
Нет
 
     
 
 
Автор Сообщение

HUNTER

Стаж:
5 лет
Сообщений:
68414

Репутация: 101

[+] [-]
Вне форума [Профиль] [ЛС]

The DJ Producer - Dedicat3d
Жанр: Hardcore, Techno, Industrial, Gabber;
Страна-производитель диска: Netherlands;
Год издания: 2007;
Издатель (лейбл): The Third Movement;
Номер по каталогу: T3RDM0133;
Страна: UK;
Аудиокодек: FLAC (*.flac);
Тип рипа: image+.cue;
Битрейт аудио: lossless;
Продолжительность: 1:14:54;
Источник (релизер): rutracker.org;
Наличие сканов в содержимом раздачи: нет;
Треклист:-01. Luke McMillan - Darken (3:05)
02. The DJ Producer - That Guitar Track (Freestyle Abuse) (1:56)
03. The DJ Producer - Doomsday Mechaniks (1:44)
04. The DJ Producer - A Journey Of Force (3:20)
05. The DJ Producer - The Signal: The Final (1:48)
06. The DJ Producer - The Signal 2007 (Producer's Weird Energy Mix) (1:52)
07. The DJ Producer - Witch Hunt (2:16)
08. The DJ Producer - Last Man Standing (2:25)
09. The DJ Producer - Noise Annoyz (2:14)
10. The DJ Producer - What I'm Talking About (3:15)
11. The DJ Producer with DJ Promo - Mark Of High Renown (1:25)
12. Double Face - Monkeys Revenge (The DJ Producer Urban Distress Signal) (3:57)
13. Stormtrooper - Existenz (The DJ Producer Existential Reburn) (2:19)
14. Drokz - What We Started Will Not End (The DJ Producer VIP Mix) (2:30)
15. The DJ Producer - Afraid (2:49)
16. The DJ Producer - Tension Sexuelle (3:08)
17. The DJ Producer - Something Stronger (Fine Day Mix) (3:32)
18. The DJ Producer - Emotional Blackmail (4:05)
19. The DJ Producer - The Last Great Overdose (2:51)
20. The DJ Producer - Megamix 666 (2:57)
21. The DJ Producer - B Boy Brutality (UK Reprobate Beats This) (3:58)
22. The DJ Producer - The True Creators Part 2 (4:50)
23. The DJ Producer - The Kickdrum Kamikaze (6:06)
24. The DJ Producer - Out Of Control (Huge Spaced Arena Remix) (6:34)

Лог создания рипа

Exact Audio Copy V0.99 prebeta 4 from 23. January 2008
Отчёт EAC об извлечении, выполненном 29. июня 2008, 10:35
The Dj Producer / Dedicat3D
Дисковод: Optiarc DVD RW AD-7543A Adapter: 1 ID: 0
Режим чтения : ДостоверностьИспользование точного потока : ДаОтключение кэша аудио : ДаИспользование указателей C2 : Нет
Коррекция смещения при чтении : 48Способность читать области Lead-in и Lead-out : НетЗаполнение пропущенных сэмплов тишиной : ДаУдаление блоков с тишиной в начале и конце : НетПри вычислениях CRC использовались нулевые сэмплы : ДаИнтерфейс : Встроенный Win32-интерфейс для Win NT/2000
Выходной формат : Пользовательский кодировщикВыбранный битрейт : 768 kBit/sКачество : ВысокийДобавление ID3-тэга : ДаУтилита сжатия : C:\Program Files\Exact Audio Copy\FLAC\FLAC.EXEДополнительные параметры : -6 -V -T "ARTIST=%a" -T "TITLE=%t" -T "ALBUM=%g" -T "DATE=%y" -T "TRACKNUMBER=%n" -T "GENRE=%m" -T "COMMENT=%e" %s -o %d
TOC извлечённого CD
Трек | Старт | Длительность | Начальный сектор | Конечный сектор --------------------------------------------------------------------- 1 | 0:00.00 | 3:05.27 | 0 | 13901 2 | 3:05.27 | 1:55.53 | 13902 | 22579 3 | 5:01.05 | 1:44.00 | 22580 | 30379 4 | 6:45.05 | 3:19.54 | 30380 | 45358 5 | 10:04.59 | 1:47.46 | 45359 | 53429 6 | 11:52.30 | 1:52.28 | 53430 | 61857 7 | 13:44.58 | 2:16.18 | 61858 | 72075 8 | 16:01.01 | 2:24.45 | 72076 | 82920 9 | 18:25.46 | 2:14.05 | 82921 | 92975 10 | 20:39.51 | 3:14.49 | 92976 | 107574 11 | 23:54.25 | 1:25.33 | 107575 | 113982 12 | 25:19.58 | 3:56.56 | 113983 | 131738 13 | 29:16.39 | 2:18.45 | 131739 | 142133 14 | 31:35.09 | 2:29.58 | 142134 | 153366 15 | 34:04.67 | 2:48.47 | 153367 | 166013 16 | 36:53.39 | 3:08.06 | 166014 | 180119 17 | 40:01.45 | 3:31.40 | 180120 | 195984 18 | 43:33.10 | 4:04.62 | 195985 | 214346 19 | 47:37.72 | 2:51.28 | 214347 | 227199 20 | 50:29.25 | 2:56.43 | 227200 | 240442 21 | 53:25.68 | 3:57.54 | 240443 | 258271 22 | 57:23.47 | 4:50.01 | 258272 | 280022 23 | 62:13.48 | 6:06.03 | 280023 | 307475 24 | 68:19.51 | 6:34.29 | 307476 | 337054
Характеристики диапазона извлечения и сообщения об ошибках
Выбранный диапазон
Имя файла D:\The Dj Producer - Dedicat3D.wav
Пиковый уровень 94.4 % Качество диапазона 100.0 % CRC копии 68369130 Копирование... OK
Ошибок не произошло
Конец отчёта

Содержание индексной карты (.CUE)

REM GENRE HardcoreREM DATE 2007REM DISCID 34118E18REM COMMENT "ExactAudioCopy v0.99pb4"PERFORMER "The Dj Producer"TITLE "Dedicat3D"FILE "The Dj Producer - Dedicat3D.flac" WAVE TRACK 01 AUDIO TITLE "Luke Mcmillan / Darken" PERFORMER "The Dj Producer" INDEX 01 00:00:00 TRACK 02 AUDIO TITLE " / That Guitar Track (Freestyle Abuse)" PERFORMER "The Dj Producer" INDEX 01 03:05:27 TRACK 03 AUDIO TITLE " / Doomsday Mechaniks" PERFORMER "The Dj Producer" INDEX 01 05:01:05 TRACK 04 AUDIO TITLE " / A Journey Of Force" PERFORMER "The Dj Producer" INDEX 01 06:45:05 TRACK 05 AUDIO TITLE " / The Signal: The Final" PERFORMER "The Dj Producer" INDEX 01 10:04:59 TRACK 06 AUDIO TITLE " / The Signal 2007 (Producers Weird Energy Mix)" PERFORMER "The Dj Producer" INDEX 01 11:52:30 TRACK 07 AUDIO TITLE " / Witch Hunt" PERFORMER "The Dj Producer" INDEX 01 13:44:58 TRACK 08 AUDIO TITLE " / Last Man Standing" PERFORMER "The Dj Producer" INDEX 01 16:01:01 TRACK 09 AUDIO TITLE " / Noise Annoyz" PERFORMER "The Dj Producer" INDEX 01 18:25:46 TRACK 10 AUDIO TITLE " / What Im Talking About" PERFORMER "The Dj Producer" INDEX 01 20:39:51 TRACK 11 AUDIO TITLE " / Mark Of High Renown" PERFORMER "The Dj Producer" INDEX 01 23:54:25 TRACK 12 AUDIO TITLE "Double Face / Monkeys Revenge (Producers Urban Distress Signal)" PERFORMER "The Dj Producer" INDEX 01 25:19:58 TRACK 13 AUDIO TITLE "Stormtrooper / Existenz (Producers Existential Reburn)" PERFORMER "The Dj Producer" INDEX 01 29:16:39 TRACK 14 AUDIO TITLE "Drokz / What We Started Will Not End (Producer V.I.P.)" PERFORMER "The Dj Producer" INDEX 01 31:35:09 TRACK 15 AUDIO TITLE " / Afraid" PERFORMER "The Dj Producer" INDEX 01 34:04:67 TRACK 16 AUDIO TITLE " / Tension Sexuelle" PERFORMER "The Dj Producer" INDEX 01 36:53:39 TRACK 17 AUDIO TITLE " / Something Stronger (Fine Day Mix)" PERFORMER "The Dj Producer" INDEX 01 40:01:45 TRACK 18 AUDIO TITLE " / Emotional Blackmail" PERFORMER "The Dj Producer" INDEX 01 43:33:10 TRACK 19 AUDIO TITLE " / The Last Great Overdose" PERFORMER "The Dj Producer" INDEX 01 47:37:72 TRACK 20 AUDIO TITLE " / Megamix 666" PERFORMER "The Dj Producer" INDEX 01 50:29:25 TRACK 21 AUDIO TITLE " / B Boy Brutality (Uk Reprobate Beats This)" PERFORMER "The Dj Producer" INDEX 01 53:25:68 TRACK 22 AUDIO TITLE " / The True Creators Part 2" PERFORMER "The Dj Producer" INDEX 01 57:23:47 TRACK 23 AUDIO TITLE " / The Kickdrum Kamikazee" PERFORMER "The Dj Producer" INDEX 01 62:13:48 TRACK 24 AUDIO TITLE " / Out Of Control (Huge Spaced Arena Remix)" PERFORMER "The Dj Producer" INDEX 01 68:19:51

Лог проверки качества

AUDIOCHECKER v1.2 - by Dester - opdester@freemail.hu~~~~~~~~~~~~~~~~~
21 -===- C:\Temp\The Dj Producer - Dedicat3D [FLAC][2007]\The Dj Producer - Dedicat3D.flac Extracted successfully Conclusion: This track looks like CDDA with probability 100%

_________________
Показать сообщения:    

Текущее время: Сегодня 19:31

Часовой пояс: GMT



Вы не можете начинать темы
Вы не можете отвечать на сообщения
Вы не можете редактировать свои сообщения
Вы не можете удалять свои сообщения
Вы не можете голосовать в опросах
Вы не можете прикреплять файлы к сообщениям
Вы не можете скачивать файлы