Важное объявление!
У Нас Все раздачи мультитрекерные, при нуле пиров в релизах, можете смело вставать на закачку!
 
Автор Сообщение

HUNTER

Стаж:
4 года 7 месяцев
Сообщений:
61449

Репутация: 101

[+] [-]
Вне форума [Профиль] [ЛС]

Assi / Fred Gabberstein Loves Wilma (Remixes)
Жанр: Hardcore, Techno, Happy Hardcore
Носитель: CDM
Страна-производитель диска (релиза): Germany
Год издания: 1994
Издатель (лейбл): ZYX Music
Номер по каталогу: ZYX 7384R-8
Страна исполнителя (группы): Germany
Аудиокодек: FLAC (*.flac)
Тип рипа: tracks+.cue
Битрейт аудио: lossless
Продолжительность: 16:08
Источник (релизер): Рип с диска из личной коллекции
Наличие сканов в содержимом раздачи: нет
Треклист:
1. Fred Gabberstein Loves Wilma-Remix (Single Mix)
2. Fred Gabberstein Loves Wilma-Remix (Komakino Mix)
3. Fred Gabberstein Loves Wilma-Remix (Sunbeam Mix)
4. Rotterduck

Лог создания рипа

Exact Audio Copy V1.0 beta 3 from 29. August 2011
Отчёт EAC об извлечении, выполненном 5. июня 2015, 13:33
Assi / Fred Gabberstein Loves Wilma (Remixes) CDM
Дисковод: TSSTcorpCDDVDW SH-S203D Adapter: 2 ID: 0
Режим чтения : ДостоверностьИспользование точного потока : ДаОтключение кэша аудио : ДаИспользование указателей C2 : Нет
Коррекция смещения при чтении : 6Способность читать области Lead-in и Lead-out : НетЗаполнение пропущенных сэмплов тишиной : ДаУдаление блоков с тишиной в начале и конце : НетПри вычислениях CRC использовались нулевые сэмплы : ДаИнтерфейс : Встроенный Win32-интерфейс для Win NT/2000Обработка зазоров : Добавлено к предыдущему треку
Выходной формат : Пользовательский кодировщикВыбранный битрейт : 1024 kBit/sКачество : ВысокийДобавление ID3-тега : НетУтилита сжатия : C:\Program Files (x86)\Exact Audio Copy\FLAC\FLAC.EXEДополнительные параметры : -6 -V -T "ARTIST=%artist%" -T "TITLE=%title%" -T "ALBUM=%albumtitle%" -T "DATE=%year%" -T "TRACKNUMBER=%tracknr%" -T "GENRE=%genre%" -T "COMMENT=%comment%" -T "BAND=%albuminterpret%" -T "ALBUMARTIST=%albuminterpret%" -T "COMPOSER=%composer%" %haslyrics%--tag-from-file=LYRICS="%lyricsfile%"%haslyrics% -T "DISCNUMBER=%cdnumber%" -T "TOTALDISCS=%totalcds%" -T "TOTALTRACKS=%numtracks%" %hascover%--picture="%coverfile%"%hascover% %source% -o %dest%
TOC извлечённого CD
Трек | Старт | Длительность | Начальный сектор | Конечный сектор --------------------------------------------------------------------- 1 | 0:00.00 | 2:47.05 | 0 | 12529 2 | 2:47.05 | 4:23.18 | 12530 | 32272 3 | 7:10.23 | 3:47.60 | 32273 | 49357 4 | 10:58.08 | 5:07.67 | 49358 | 72449
Трек 1
Имя файла E:\МУЗЫКА\01. Assi - Fred Gabberstein Loves Wilma-Remix (Single Mix).wav
Длина предзазора 0:00:02.00
Пиковый уровень 90.4 % Скорость извлечения 1.6 X Качество трека 100.0 % CRC теста 95515DD2 CRC копии 95515DD2 Точное извлечение (достоверность 1) [7758C217] (AR v2) Копирование... OK
Трек 2
Имя файла E:\МУЗЫКА\02. Assi - Fred Gabberstein Loves Wilma-Remix (Komakino Mix).wav
Пиковый уровень 91.3 % Скорость извлечения 1.7 X Качество трека 99.9 % CRC теста 819D791E CRC копии 819D791E Точное извлечение (достоверность 1) [177C2A69] (AR v2) Копирование... OK
Трек 3
Имя файла E:\МУЗЫКА\03. Assi - Fred Gabberstein Loves Wilma-Remix (Sunbeam Mix).wav
Пиковый уровень 91.3 % Скорость извлечения 2.0 X Качество трека 100.0 % CRC теста 9299E71B CRC копии 9299E71B Точное извлечение (достоверность 1) [64F5FD8A] (AR v2) Копирование... OK
Трек 4
Имя файла E:\МУЗЫКА\04. Assi - Rotterduck.wav
Пиковый уровень 85.2 % Скорость извлечения 2.3 X Качество трека 100.0 % CRC теста EF8A503B CRC копии EF8A503B Точное извлечение (достоверность 1) [3782CDE7] (AR v2) Копирование... OK
Все треки извлечены точно
Ошибок не произошло
Конец отчёта
==== Контрольная сумма отчёта F28D80346B392DBB61F656D1AFFC4EE5E1CB9521FBBF2FEC982B8F6354C56AE4 ====

Содержание индексной карты (.CUE)

REM GENRE "Happy Hardcore"REM DATE 1994REM DISCID 2703C604REM COMMENT "ExactAudioCopy v1.0b3"CATALOG 0000000000000PERFORMER "Assi"TITLE "Fred Gabberstein Loves Wilma (Remixes) CDM"FILE "01. Assi - Fred Gabberstein Loves Wilma-Remix (Single Mix).wav" WAVE TRACK 01 AUDIO TITLE "Fred Gabberstein Loves Wilma-Remix (Single Mix)" PERFORMER "Assi" INDEX 01 00:00:00FILE "02. Assi - Fred Gabberstein Loves Wilma-Remix (Komakino Mix).wav" WAVE TRACK 02 AUDIO TITLE "Fred Gabberstein Loves Wilma-Remix (Komakino Mix)" PERFORMER "Assi" INDEX 01 00:00:00FILE "03. Assi - Fred Gabberstein Loves Wilma-Remix (Sunbeam Mix).wav" WAVE TRACK 03 AUDIO TITLE "Fred Gabberstein Loves Wilma-Remix (Sunbeam Mix)" PERFORMER "Assi" INDEX 01 00:00:00FILE "04. Assi - Rotterduck.wav" WAVE TRACK 04 AUDIO TITLE "Rotterduck" PERFORMER "Assi" INDEX 01 00:00:00
Доп. информация: http://www.discogs.com/Assi-Fred-Gabberstein-Loves-.../release/2025785

Состав

Detlef Hastik, Ralph Fritsch

_________________
Показать сообщения:    

Текущее время: Сегодня 19:29

Часовой пояс: GMT



Вы не можете начинать темы
Вы не можете отвечать на сообщения
Вы не можете редактировать свои сообщения
Вы не можете удалять свои сообщения
Вы не можете голосовать в опросах
Вы не можете прикреплять файлы к сообщениям
Вы не можете скачивать файлы
Наши партнеры: интернет магазин Ивановского трикотажа textilla.ru