Важное объявление!
У Нас Все раздачи мультитрекерные, при нуле пиров в релизах, можете смело вставать на закачку!
Статистика раздачи
Размер:     |    Зарегистрирован:     |    Скачан:     |   
Нет
 
     
 
 
Автор Сообщение

HUNTER

Стаж:
5 лет 1 месяц
Сообщений:
68429

Репутация: 101

[+] [-]
Вне форума [Профиль] [ЛС]

Rave Series Volume Two
Жанр: Hardcore, Techno, Gabber
Год издания: 1992
Издатель (лейбл): Rave Records
Номер по каталогу: RAVE 4TH
Аудиокодек: FLAC (*.flac)
Тип рипа: tracks+.cue
Битрейт аудио: lossless
Продолжительность: 55:40
Источник (релизер): RaveGenerator (yourtracker)
Наличие сканов в содержимом раздачи: нет
Треклист:
01. RaveAGraphixx - Ease Your Mind (Strong Emotion Mix) [04:56]
02. Time Code - Thank God It's Friday [05:01]
03. Deywitness - Observing The Earth [04:21]
04. Avantguarde - The Source (The South Side Mix) [05:52]
05. XTRO - Dikke Vette Pannekoeke (How Do Ya Like It7) [04:24]
06. 44.1. K-Hurts - Dissolution [06:02]
07. A Claim 2 Fame - Take You There [05:54]
08. Collage - Steady Pounding [07:42]
09. Euromasters - Amsterdam, Waar Lech Dat Dan7 [04:18]
10. Rave A Graphixx - The Cool Down Area [07:05]

Лог создания рипа

Exact Audio Copy V1.0 beta 3 from 29. August 2011
EAC extraction logfile from 3. May 2013, 20:15
Various / Rave Series Volume Two
Used drive : Optiarc DVD RW AD-7260S Adapter: 2 ID: 1
Read mode : SecureUtilize accurate stream : YesDefeat audio cache : YesMake use of C2 pointers : No
Read offset correction : 48Overread into Lead-In and Lead-Out : NoFill up missing offset samples with silence : YesDelete leading and trailing silent blocks : NoNull samples used in CRC calculations : YesUsed interface : Native Win32 interface for Win NT & 2000Gap handling : Appended to previous track
Used output format : User Defined EncoderSelected bitrate : 768 kBit/sQuality : HighAdd ID3 tag : YesCommand line compressor : E:\Program Files\Exact Audio Copy\Flac\flac.exeAdditional command line options : -8 -V -T "ARTIST=%artist%" -T "TITLE=%title%" -T "ALBUM=%albumtitle%" -T "DATE=%year%" -T "TRACKNUMBER=%tracknr%" -T "GENRE=%genre%" -T "COMMENT=ripped by RaveGenerator" %source%
TOC of the extracted CD
Track | Start | Length | Start sector | End sector --------------------------------------------------------- 1 | 0:00.00 | 4:56.02 | 0 | 22201 2 | 4:56.02 | 5:01.58 | 22202 | 44834 3 | 9:57.60 | 4:21.15 | 44835 | 64424 4 | 14:19.00 | 5:52.27 | 64425 | 90851 5 | 20:11.27 | 4:24.63 | 90852 | 110714 6 | 24:36.15 | 6:02.32 | 110715 | 137896 7 | 30:38.47 | 5:54.63 | 137897 | 164509 8 | 36:33.35 | 7:42.32 | 164510 | 199191 9 | 44:15.67 | 4:18.43 | 199192 | 218584 10 | 48:34.35 | 7:05.72 | 218585 | 250531
Track 1
Filename R:\musik2\01. RaveAGraphixx - Ease Your Mind (Strong Emotion Mix).wav
Pre-gap length 0:00:02.00
Peak level 95.1 % Extraction speed 2.4 X Track quality 100.0 % Test CRC DA60E5FC Copy CRC DA60E5FC Track not present in AccurateRip database Copy OK
Track 2
Filename R:\musik2\02. Time Code - Thank God It's Friday.wav
Pre-gap length 0:00:01.07
Peak level 89.1 % Extraction speed 2.4 X Track quality 99.9 % Test CRC D8D7D7D2 Copy CRC D8D7D7D2 Track not present in AccurateRip database Copy OK
Track 3
Filename R:\musik2\03. Deywitness - Observing The Earth.wav
Pre-gap length 0:00:01.03
Peak level 96.4 % Extraction speed 2.9 X Track quality 100.0 % Test CRC 844D9AF3 Copy CRC 844D9AF3 Track not present in AccurateRip database Copy OK
Track 4
Filename R:\musik2\04. Avantguarde - The Source (The South Side Mix).wav
Pre-gap length 0:00:00.30
Peak level 85.5 % Extraction speed 3.3 X Track quality 100.0 % Test CRC B15FEE76 Copy CRC B15FEE76 Track not present in AccurateRip database Copy OK
Track 5
Filename R:\musik2\05. XTRO - Dikke Vette Pannekoeke (How Do Ya Like It7).wav
Pre-gap length 0:00:01.35
Peak level 89.6 % Extraction speed 3.4 X Track quality 100.0 % Test CRC A74742B6 Copy CRC A74742B6 Track not present in AccurateRip database Copy OK
Track 6
Filename R:\musik2\06. 44.1. K-Hurts - Dissolution.wav
Pre-gap length 0:00:01.58
Peak level 91.8 % Extraction speed 3.8 X Track quality 100.0 % Test CRC 724BD706 Copy CRC 724BD706 Track not present in AccurateRip database Copy OK
Track 7
Filename R:\musik2\07. A Claim 2 Fame - Take You There.wav
Pre-gap length 0:00:01.61
Peak level 87.0 % Extraction speed 4.0 X Track quality 100.0 % Test CRC ED0B77F1 Copy CRC ED0B77F1 Track not present in AccurateRip database Copy OK
Track 8
Filename R:\musik2\08. Collage - Steady Pounding.wav
Pre-gap length 0:00:00.72
Peak level 95.5 % Extraction speed 4.4 X Track quality 100.0 % Test CRC C8302C85 Copy CRC C8302C85 Track not present in AccurateRip database Copy OK
Track 9
Filename R:\musik2\09. Euromasters - Amsterdam, Waar Lech Dat Dan7.wav
Pre-gap length 0:00:01.37
Peak level 87.3 % Extraction speed 4.4 X Track quality 100.0 % Test CRC 0BA356BD Copy CRC 0BA356BD Track not present in AccurateRip database Copy OK
Track 10
Filename R:\musik2\10. Rave A Graphixx - The Cool Down Area.wav
Peak level 85.9 % Extraction speed 4.5 X Track quality 99.9 % Test CRC 916A042C Copy CRC 916A042C Track not present in AccurateRip database Copy OK
None of the tracks are present in the AccurateRip database
No errors occurred
End of status report
---- CUETools DB Plugin V2.1.3
[CTDB TOCID: DMbFM9ITgemFW2sUtnj3DKOGLpc-] disk not present in database, Submit result: DMbFM9ITgemFW2sUtnj3DKOGLpc- has been uploaded
==== Log checksum 2B05BD3989A275C93BD4F55F49C67D767D365C33B6BCFB1A61DB6F15C2F09AD5 ====

Содержание индексной карты (.CUE)

REM GENRE "Techno, Hardcore"REM DATE 1992REM DISCID 9A0D0C0AREM COMMENT "ExactAudioCopy v1.0b3"PERFORMER "Various"TITLE "Rave Series Volume Two"FILE "01. RaveAGraphixx - Ease Your Mind (Strong Emotion Mix).wav" WAVE TRACK 01 AUDIO TITLE "Ease Your Mind (Strong Emotion Mix)" PERFORMER "RaveAGraphixx" INDEX 01 00:00:00 TRACK 02 AUDIO TITLE " Thank God It's Friday" PERFORMER "Time Code" INDEX 00 04:54:70FILE "02. Time Code - Thank God It's Friday.wav" WAVE INDEX 01 00:00:00 TRACK 03 AUDIO TITLE "Observing The Earth" PERFORMER "Deywitness" INDEX 00 05:00:55FILE "03. Deywitness - Observing The Earth.wav" WAVE INDEX 01 00:00:00 TRACK 04 AUDIO TITLE "The Source (The South Side Mix)" PERFORMER "Avantguarde" INDEX 00 04:20:60FILE "04. Avantguarde - The Source (The South Side Mix).wav" WAVE INDEX 01 00:00:00 TRACK 05 AUDIO TITLE "Dikke Vette Pannekoeke (How Do Ya Like It7)" PERFORMER "XTRO" INDEX 00 05:50:67FILE "05. XTRO - Dikke Vette Pannekoeke (How Do Ya Like It7).wav" WAVE INDEX 01 00:00:00 TRACK 06 AUDIO TITLE "Dissolution" PERFORMER "44.1. K-Hurts" INDEX 00 04:23:05FILE "06. 44.1. K-Hurts - Dissolution.wav" WAVE INDEX 01 00:00:00 TRACK 07 AUDIO TITLE "Take You There" PERFORMER "A Claim 2 Fame" INDEX 00 06:00:46FILE "07. A Claim 2 Fame - Take You There.wav" WAVE INDEX 01 00:00:00 TRACK 08 AUDIO TITLE "Steady Pounding" PERFORMER "Collage" INDEX 00 05:53:66FILE "08. Collage - Steady Pounding.wav" WAVE INDEX 01 00:00:00 TRACK 09 AUDIO TITLE " Amsterdam, Waar Lech Dat Dan7" PERFORMER "Euromasters" INDEX 00 07:40:70FILE "09. Euromasters - Amsterdam, Waar Lech Dat Dan7.wav" WAVE INDEX 01 00:00:00FILE "10. Rave A Graphixx - The Cool Down Area.wav" WAVE TRACK 10 AUDIO TITLE "The Cool Down Area" PERFORMER "Rave A Graphixx" INDEX 01 00:00:00


_________________
Показать сообщения:    

Текущее время: Сегодня 05:43

Часовой пояс: GMT



Вы не можете начинать темы
Вы не можете отвечать на сообщения
Вы не можете редактировать свои сообщения
Вы не можете удалять свои сообщения
Вы не можете голосовать в опросах
Вы не можете прикреплять файлы к сообщениям
Вы не можете скачивать файлы