Важное объявление!
У Нас Все раздачи мультитрекерные, при нуле пиров в релизах, можете смело вставать на закачку!
 
Автор Сообщение

HUNTER

Стаж:
4 года 4 месяца
Сообщений:
56765

Репутация: 101

[+] [-]
Вне форума [Профиль] [ЛС]

Demolition Part 6
Жанр: Hardcore, Techno, Gabber
Страна-производитель диска: Netherlands
Год издания: 2005
Издатель (лейбл): The Third Movement
Номер по каталогу: T3RDM0088
Аудиокодек: FLAC (*.flac)
Тип рипа: tracks+.cue
Битрейт аудио: lossless
Продолжительность: CD1 - 1:17:56; CD2 - 1:19:19
Источник (релизер): Собственный рип
Наличие сканов в содержимом раздачи: да, 600dpi PNG
Треклист:
CD1:
01. Promo & D-Passion - The Next Level
02. Evil Activities & DJ Panic Feat. Mc Alee - Never Fall Asleep
03. Ophidian & Tapage - The Mine
04. D-Passion - Designed To Fail
05. Armageddon Project - The Punishment Due
06. Peaky Pounder - Vasaran
07. The Outside Agency - 740 MHz - Inertial Overtone
08. Rude Awakening - What Have I Left Undone
09. Manga Corps - The Hunter (Stormtrooper Mix)
10. Hectic Fence - Armed To The Teeth
11. T-Junction Feat. Mc Syco - The Voice Of Power
12. Promo - Don't Be Fuckin' With My Shit
13. Stunned Guys & Tommyknocker - Your Choice
14. Lady Dana - Nasty Girl
15. The DJ Producer Feat. Mc Justice - Noctural Rituals
16. Unexist - Line Got Crossed
CD2:
01. Promo - Far From Done
02. D-Passion - Put Things Right
03. Human Resource - Dominator (Stunned Guys Mix)
04. Alex B & Promo - Bij Gebrek Aan Beter
05. Endymion & Nosferatu - Reformation
06. Void Settler - Nightfall Deceit
07. Xaphan - Foghorn
08. Face Hoover - Voices
09. Hectic Fence - Blackmailing (D-Passion Remix)
10. Meccano Twins - Breath
11. N-Vitral - My Gopryn
12. Armageddon Project & Promo - Righteous Infliction Of Retribution
13. Unexist - Smash
14. Ritchie & Marciano Gambino - Talk Of Torture
15. Despairful Tomorrow & Xenophex - Viral Mind
16. DJ Skinhead - At War Again (DJ Promo Remix)

Логи создания рипов

CD1

Exact Audio Copy V1.0 beta 1 from 15. November 2010
EAC extraction logfile from 26. September 2012, 20:47
Various / Demolition Part 6 (Disc 1)
Used drive : ASUS DRW-24B3ST Adapter: 3 ID: 0
Read mode : SecureUtilize accurate stream : YesDefeat audio cache : YesMake use of C2 pointers : No
Read offset correction : 6Overread into Lead-In and Lead-Out : NoFill up missing offset samples with silence : YesDelete leading and trailing silent blocks : NoNull samples used in CRC calculations : YesUsed interface : Native Win32 interface for Win NT & 2000Gap handling : Appended to previous track
Used output format : Пользовательский кодировщикSelected bitrate : 1024 kBit/sQuality : HighAdd ID3 tag : YesCommand line compressor : C:\Program Files\Exact Audio Copy\FLAC\FLAC.EXEAdditional command line options : -8 -V -T "ARTIST=%a" -T "TITLE=%t" -T "ALBUM=%g" -T "DATE=%y" -T "TRACKNUMBER=%n" -T "GENRE=%m" -T "COMMENT=EAC FLAC -8" %s
TOC of the extracted CD
Track | Start | Length | Start sector | End sector --------------------------------------------------------- 1 | 0:00.00 | 5:27.43 | 0 | 24567 2 | 5:27.43 | 5:30.26 | 24568 | 49343 3 | 10:57.69 | 5:03.68 | 49344 | 72136 4 | 16:01.62 | 6:23.71 | 72137 | 100932 5 | 22:25.58 | 5:24.02 | 100933 | 125234 6 | 27:49.60 | 4:39.25 | 125235 | 146184 7 | 32:29.10 | 5:17.49 | 146185 | 170008 8 | 37:46.59 | 5:19.74 | 170009 | 194007 9 | 43:06.58 | 4:27.51 | 194008 | 214083 10 | 47:34.34 | 2:54.01 | 214084 | 227134 11 | 50:28.35 | 5:29.74 | 227135 | 251883 12 | 55:58.34 | 6:22.24 | 251884 | 280557 13 | 62:20.58 | 4:02.65 | 280558 | 298772 14 | 66:23.48 | 3:48.00 | 298773 | 315872 15 | 70:11.48 | 3:52.31 | 315873 | 333303 16 | 74:04.04 | 3:52.22 | 333304 | 350725
Track 1
Filename C:\Users\Администратор\Desktop\Audio\01. Promo & D-Passion - The Next Level.wav
Pre-gap length 0:00:02.00
Peak level 90.6 % Extraction speed 4.0 X Track quality 100.0 % Test CRC EA396B2D Copy CRC EA396B2D Accurately ripped (confidence 2) [54EB968F] Copy OK
Track 2
Filename C:\Users\Администратор\Desktop\Audio\02. Evil Activities & DJ Panic Feat. Mc Alee - Never Fall Asleep.wav
Peak level 95.5 % Extraction speed 4.6 X Track quality 100.0 % Test CRC D0CB5203 Copy CRC D0CB5203 Accurately ripped (confidence 2) [A71CCE2D] Copy OK
Track 3
Filename C:\Users\Администратор\Desktop\Audio\03. Ophidian & Tapage - The Mine.wav
Peak level 79.5 % Extraction speed 5.0 X Track quality 100.0 % Test CRC 037F8B90 Copy CRC 037F8B90 Accurately ripped (confidence 2) [5392EA1C] Copy OK
Track 4
Filename C:\Users\Администратор\Desktop\Audio\04. D-Passion - Designed To Fail.wav
Peak level 95.5 % Extraction speed 5.5 X Track quality 100.0 % Test CRC 0AE1BF89 Copy CRC 0AE1BF89 Accurately ripped (confidence 2) [33C4EB52] Copy OK
Track 5
Filename C:\Users\Администратор\Desktop\Audio\05. Armageddon Project - The Punishment Due.wav
Peak level 95.5 % Extraction speed 5.7 X Track quality 100.0 % Test CRC 644F2BBB Copy CRC 644F2BBB Accurately ripped (confidence 2) [E6D567F4] Copy OK
Track 6
Filename C:\Users\Администратор\Desktop\Audio\06. Peaky Pounder - Vasaran.wav
Peak level 95.5 % Extraction speed 6.0 X Track quality 100.0 % Test CRC 5C7E00A7 Copy CRC 5C7E00A7 Accurately ripped (confidence 2) [4617F5D5] Copy OK
Track 7
Filename C:\Users\Администратор\Desktop\Audio\07. The Outside Agency - 740 MHz - Inertial Overtone.wav
Peak level 95.5 % Extraction speed 6.3 X Track quality 100.0 % Test CRC 0E13B707 Copy CRC 0E13B707 Accurately ripped (confidence 2) [B8B9C578] Copy OK
Track 8
Filename C:\Users\Администратор\Desktop\Audio\08. Rude Awakening - What Have I Left Undone.wav
Peak level 95.5 % Extraction speed 6.7 X Track quality 100.0 % Test CRC 619E7004 Copy CRC 619E7004 Accurately ripped (confidence 2) [7CF50735] Copy OK
Track 9
Filename C:\Users\Администратор\Desktop\Audio\09. Manga Corps - The Hunter (Stormtrooper Mix).wav
Peak level 95.5 % Extraction speed 6.8 X Track quality 100.0 % Test CRC 5A9FB8B6 Copy CRC 5A9FB8B6 Accurately ripped (confidence 2) [B15F5C6C] Copy OK
Track 10
Filename C:\Users\Администратор\Desktop\Audio\10. Hectic Fence - Armed To The Teeth.wav
Peak level 95.5 % Extraction speed 4.8 X Track quality 99.9 % Test CRC 4AFA1BE2 Copy CRC 4AFA1BE2 Accurately ripped (confidence 2) [3E98E08B] Copy OK
Track 11
Filename C:\Users\Администратор\Desktop\Audio\11. T-Junction Feat. Mc Syco - The Voice Of Power.wav
Peak level 95.5 % Extraction speed 7.3 X Track quality 100.0 % Test CRC 4644B18D Copy CRC 4644B18D Accurately ripped (confidence 2) [58130543] Copy OK
Track 12
Filename C:\Users\Администратор\Desktop\Audio\12. Promo - Don't Be Fuckin' With My Shit.wav
Peak level 95.5 % Extraction speed 7.7 X Track quality 100.0 % Test CRC 5B5296B0 Copy CRC 5B5296B0 Accurately ripped (confidence 2) [828B4111] Copy OK
Track 13
Filename C:\Users\Администратор\Desktop\Audio\13. Stunned Guys & Tommyknocker - Your Choice.wav
Peak level 95.5 % Extraction speed 7.5 X Track quality 100.0 % Test CRC F670CEDF Copy CRC F670CEDF Accurately ripped (confidence 2) [D5E1CD35] Copy OK
Track 14
Filename C:\Users\Администратор\Desktop\Audio\14. Lady Dana - Nasty Girl.wav
Peak level 95.5 % Extraction speed 7.6 X Track quality 100.0 % Test CRC B1FCDF4F Copy CRC B1FCDF4F Accurately ripped (confidence 2) [844E9502] Copy OK
Track 15
Filename C:\Users\Администратор\Desktop\Audio\15. The DJ Producer Feat. Mc Justice - Noctural Rituals.wav
Peak level 95.5 % Extraction speed 6.2 X Track quality 99.9 % Test CRC 6D78F548 Copy CRC 6D78F548 Accurately ripped (confidence 2) [ECF47502] Copy OK
Track 16
Filename C:\Users\Администратор\Desktop\Audio\16. Unexist - Line Got Crossed.wav
Peak level 95.5 % Extraction speed 8.0 X Track quality 100.0 % Test CRC 67C52F09 Copy CRC 67C52F09 Accurately ripped (confidence 2) [6EEC166C] Copy OK
All tracks accurately ripped
No errors occurred
End of status report
==== Log checksum 923AF0F6C5330329ADE6C06B68C6DC8EC53C3F42D4CDECB89B46F4D9E6FE8965 ====

CD2

Exact Audio Copy V1.0 beta 1 from 15. November 2010
EAC extraction logfile from 26. September 2012, 21:17
Various / Demolition Part 6 (Disc 2)
Used drive : ASUS DRW-24B3ST Adapter: 3 ID: 0
Read mode : SecureUtilize accurate stream : YesDefeat audio cache : YesMake use of C2 pointers : No
Read offset correction : 6Overread into Lead-In and Lead-Out : NoFill up missing offset samples with silence : YesDelete leading and trailing silent blocks : NoNull samples used in CRC calculations : YesUsed interface : Native Win32 interface for Win NT & 2000Gap handling : Appended to previous track
Used output format : Пользовательский кодировщикSelected bitrate : 1024 kBit/sQuality : HighAdd ID3 tag : YesCommand line compressor : C:\Program Files\Exact Audio Copy\FLAC\FLAC.EXEAdditional command line options : -8 -V -T "ARTIST=%a" -T "TITLE=%t" -T "ALBUM=%g" -T "DATE=%y" -T "TRACKNUMBER=%n" -T "GENRE=%m" -T "COMMENT=EAC FLAC -8" %s
TOC of the extracted CD
Track | Start | Length | Start sector | End sector --------------------------------------------------------- 1 | 0:00.00 | 5:22.22 | 0 | 24171 2 | 5:22.22 | 6:17.72 | 24172 | 52518 3 | 11:40.19 | 5:16.71 | 52519 | 76289 4 | 16:57.15 | 4:45.03 | 76290 | 97667 5 | 21:42.18 | 3:41.02 | 97668 | 114244 6 | 25:23.20 | 5:44.36 | 114245 | 140080 7 | 31:07.56 | 4:19.54 | 140081 | 159559 8 | 35:27.35 | 6:19.52 | 159560 | 188036 9 | 41:47.12 | 5:41.00 | 188037 | 213611 10 | 47:28.12 | 3:49.69 | 213612 | 230855 11 | 51:18.06 | 5:19.03 | 230856 | 254783 12 | 56:37.09 | 5:25.24 | 254784 | 279182 13 | 62:02.33 | 4:48.50 | 279183 | 300832 14 | 66:51.08 | 3:24.39 | 300833 | 316171 15 | 70:15.47 | 5:40.00 | 316172 | 341671 16 | 75:55.47 | 3:23.51 | 341672 | 356947
Track 1
Filename C:\Users\Администратор\Desktop\Audio\01. Promo - Far From Done.wav
Pre-gap length 0:00:02.00
Peak level 97.7 % Extraction speed 4.0 X Track quality 100.0 % Test CRC A0D6C882 Copy CRC A0D6C882 Accurately ripped (confidence 2) [FC1C8273] Copy OK
Track 2
Filename C:\Users\Администратор\Desktop\Audio\02. D-Passion - Put Things Right.wav
Peak level 97.7 % Extraction speed 4.7 X Track quality 100.0 % Test CRC D986E772 Copy CRC D986E772 Accurately ripped (confidence 2) [F4E202F7] Copy OK
Track 3
Filename C:\Users\Администратор\Desktop\Audio\03. Human Resource - Dominator (Stunned Guys Mix).wav
Peak level 97.7 % Extraction speed 5.1 X Track quality 100.0 % Test CRC AE8BEF09 Copy CRC AE8BEF09 Accurately ripped (confidence 2) [CBCC2E0C] Copy OK
Track 4
Filename C:\Users\Администратор\Desktop\Audio\04. Alex B & Promo - Bij Gebrek Aan Beter.wav
Peak level 97.7 % Extraction speed 5.4 X Track quality 100.0 % Test CRC 25821B8A Copy CRC 25821B8A Accurately ripped (confidence 2) [BB6F144C] Copy OK
Track 5
Filename C:\Users\Администратор\Desktop\Audio\05. Endymion & Nosferatu - Reformation.wav
Peak level 97.7 % Extraction speed 5.4 X Track quality 100.0 % Test CRC CB55FAC5 Copy CRC CB55FAC5 Accurately ripped (confidence 2) [2ED0E8BC] Copy OK
Track 6
Filename C:\Users\Администратор\Desktop\Audio\06. Void Settler - Nightfall Deceit.wav
Peak level 82.3 % Extraction speed 6.0 X Track quality 100.0 % Test CRC 23B9E1B1 Copy CRC 23B9E1B1 Accurately ripped (confidence 2) [F5E0402C] Copy OK
Track 7
Filename C:\Users\Администратор\Desktop\Audio\07. Xaphan - Foghorn.wav
Peak level 97.7 % Extraction speed 6.2 X Track quality 100.0 % Test CRC 7802E4D5 Copy CRC 7802E4D5 Accurately ripped (confidence 2) [725847B2] Copy OK
Track 8
Filename C:\Users\Администратор\Desktop\Audio\08. Face Hoover - Voices.wav
Peak level 97.7 % Extraction speed 6.8 X Track quality 100.0 % Test CRC 19669C50 Copy CRC 19669C50 Accurately ripped (confidence 2) [13C1E17E] Copy OK
Track 9
Filename C:\Users\Администратор\Desktop\Audio\09. Hectic Fence - Blackmailing (D-Passion Remix).wav
Peak level 97.7 % Extraction speed 7.0 X Track quality 100.0 % Test CRC 8B723BD8 Copy CRC 8B723BD8 Accurately ripped (confidence 2) [2A56D75D] Copy OK
Track 10
Filename C:\Users\Администратор\Desktop\Audio\10. Meccano Twins - Breath.wav
Peak level 97.7 % Extraction speed 6.9 X Track quality 100.0 % Test CRC 11B0C564 Copy CRC 11B0C564 Accurately ripped (confidence 2) [C77931E7] Copy OK
Track 11
Filename C:\Users\Администратор\Desktop\Audio\11. N-Vitral - My Gopryn.wav
Peak level 97.7 % Extraction speed 7.4 X Track quality 100.0 % Test CRC 0185548E Copy CRC 0185548E Accurately ripped (confidence 2) [A248AAA4] Copy OK
Track 12
Filename C:\Users\Администратор\Desktop\Audio\12. Armageddon Project & Promo - Righteous Infliction Of Retribution.wav
Peak level 95.1 % Extraction speed 7.7 X Track quality 100.0 % Test CRC AC074C87 Copy CRC AC074C87 Accurately ripped (confidence 2) [0918F25A] Copy OK
Track 13
Filename C:\Users\Администратор\Desktop\Audio\13. Unexist - Smash.wav
Peak level 87.4 % Extraction speed 7.7 X Track quality 100.0 % Test CRC 220464E1 Copy CRC 220464E1 Accurately ripped (confidence 2) [6BF0C707] Copy OK
Track 14
Filename C:\Users\Администратор\Desktop\Audio\14. Ritchie & Marciano Gambino - Talk Of Torture.wav
Peak level 97.7 % Extraction speed 5.7 X Track quality 99.9 % Test CRC D7B48A48 Copy CRC D7B48A48 Accurately ripped (confidence 2) [6FEDBDFE] Copy OK
Track 15
Filename C:\Users\Администратор\Desktop\Audio\15. Despairful Tomorrow & Xenophex - Viral Mind.wav
Peak level 97.7 % Extraction speed 8.3 X Track quality 100.0 % Test CRC D72AD76B Copy CRC D72AD76B Accurately ripped (confidence 2) [20D338D4] Copy OK
Track 16
Filename C:\Users\Администратор\Desktop\Audio\16. DJ Skinhead - At War Again (DJ Promo Remix).wav
Peak level 97.7 % Extraction speed 7.9 X Track quality 100.0 % Test CRC D208F799 Copy CRC D208F799 Accurately ripped (confidence 2) [3869DF88] Copy OK
All tracks accurately ripped
No errors occurred
End of status report
==== Log checksum 17CDB817621BFF8E14EFC1C231441E3F7D81334BE71D5D3DB4ED32BBF9896F76 ====

Содержание индексных карт (.CUE)

CD1

REM GENRE HardcoreREM DATE 2005REM DISCID F9124410REM COMMENT "ExactAudioCopy v1.0b1"PERFORMER "Various"TITLE "Demolition Part 6 (Disc 1)"FILE "01. Promo & D-Passion - The Next Level.wav" WAVE TRACK 01 AUDIO TITLE "The Next Level" PERFORMER "Promo & D-Passion" INDEX 01 00:00:00FILE "02. Evil Activities & DJ Panic Feat. Mc Alee - Never Fall Asleep.wav" WAVE TRACK 02 AUDIO TITLE "Never Fall Asleep" PERFORMER "Evil Activities & DJ Panic Feat. Mc Alee" INDEX 01 00:00:00FILE "03. Ophidian & Tapage - The Mine.wav" WAVE TRACK 03 AUDIO TITLE "The Mine" PERFORMER "Ophidian & Tapage" INDEX 01 00:00:00FILE "04. D-Passion - Designed To Fail.wav" WAVE TRACK 04 AUDIO TITLE "Designed To Fail" PERFORMER "D-Passion" INDEX 01 00:00:00FILE "05. Armageddon Project - The Punishment Due.wav" WAVE TRACK 05 AUDIO TITLE "The Punishment Due" PERFORMER "Armageddon Project" INDEX 01 00:00:00FILE "06. Peaky Pounder - Vasaran.wav" WAVE TRACK 06 AUDIO TITLE "Vasaran" PERFORMER "Peaky Pounder" INDEX 01 00:00:00FILE "07. The Outside Agency - 740 MHz - Inertial Overtone.wav" WAVE TRACK 07 AUDIO TITLE "740 MHz - Inertial Overtone" PERFORMER "The Outside Agency" INDEX 01 00:00:00FILE "08. Rude Awakening - What Have I Left Undone.wav" WAVE TRACK 08 AUDIO TITLE "What Have I Left Undone" PERFORMER "Rude Awakening" INDEX 01 00:00:00FILE "09. Manga Corps - The Hunter (Stormtrooper Mix).wav" WAVE TRACK 09 AUDIO TITLE "The Hunter (Stormtrooper Mix)" PERFORMER "Manga Corps" INDEX 01 00:00:00FILE "10. Hectic Fence - Armed To The Teeth.wav" WAVE TRACK 10 AUDIO TITLE "Armed To The Teeth" PERFORMER "Hectic Fence" INDEX 01 00:00:00FILE "11. T-Junction Feat. Mc Syco - The Voice Of Power.wav" WAVE TRACK 11 AUDIO TITLE "The Voice Of Power" PERFORMER "T-Junction Feat. Mc Syco" INDEX 01 00:00:00FILE "12. Promo - Don't Be Fuckin' With My Shit.wav" WAVE TRACK 12 AUDIO TITLE "Don't Be Fuckin' With My Shit" PERFORMER "Promo" INDEX 01 00:00:00FILE "13. Stunned Guys & Tommyknocker - Your Choice.wav" WAVE TRACK 13 AUDIO TITLE "Your Choice" PERFORMER "Stunned Guys & Tommyknocker" INDEX 01 00:00:00FILE "14. Lady Dana - Nasty Girl.wav" WAVE TRACK 14 AUDIO TITLE "Nasty Girl" PERFORMER "Lady Dana" INDEX 01 00:00:00FILE "15. The DJ Producer Feat. Mc Justice - Noctural Rituals.wav" WAVE TRACK 15 AUDIO TITLE "Noctural Rituals" PERFORMER "The DJ Producer Feat. Mc Justice" INDEX 01 00:00:00FILE "16. Unexist - Line Got Crossed.wav" WAVE TRACK 16 AUDIO TITLE "Line Got Crossed" PERFORMER "Unexist" INDEX 01 00:00:00

CD2

REM GENRE HardcoreREM DATE 2005REM DISCID D7129710REM COMMENT "ExactAudioCopy v1.0b1"PERFORMER "Various"TITLE "Demolition Part 6 (Disc 2)"FILE "01. Promo - Far From Done.wav" WAVE TRACK 01 AUDIO TITLE "Far From Done" PERFORMER "Promo" INDEX 01 00:00:00FILE "02. D-Passion - Put Things Right.wav" WAVE TRACK 02 AUDIO TITLE "Put Things Right" PERFORMER "D-Passion" INDEX 01 00:00:00FILE "03. Human Resource - Dominator (Stunned Guys Mix).wav" WAVE TRACK 03 AUDIO TITLE "Dominator (Stunned Guys Mix)" PERFORMER "Human Resource" INDEX 01 00:00:00FILE "04. Alex B & Promo - Bij Gebrek Aan Beter.wav" WAVE TRACK 04 AUDIO TITLE "Bij Gebrek Aan Beter" PERFORMER "Alex B & Promo" INDEX 01 00:00:00FILE "05. Endymion & Nosferatu - Reformation.wav" WAVE TRACK 05 AUDIO TITLE "Reformation" PERFORMER "Endymion & Nosferatu" INDEX 01 00:00:00FILE "06. Void Settler - Nightfall Deceit.wav" WAVE TRACK 06 AUDIO TITLE "Nightfall Deceit" PERFORMER "Void Settler" INDEX 01 00:00:00FILE "07. Xaphan - Foghorn.wav" WAVE TRACK 07 AUDIO TITLE "Foghorn" PERFORMER "Xaphan" INDEX 01 00:00:00FILE "08. Face Hoover - Voices.wav" WAVE TRACK 08 AUDIO TITLE "Voices" PERFORMER "Face Hoover" INDEX 01 00:00:00FILE "09. Hectic Fence - Blackmailing (D-Passion Remix).wav" WAVE TRACK 09 AUDIO TITLE "Blackmailing (D-Passion Remix)" PERFORMER "Hectic Fence" INDEX 01 00:00:00FILE "10. Meccano Twins - Breath.wav" WAVE TRACK 10 AUDIO TITLE "Breath" PERFORMER "Meccano Twins" INDEX 01 00:00:00FILE "11. N-Vitral - My Gopryn.wav" WAVE TRACK 11 AUDIO TITLE "My Gopryn" PERFORMER "N-Vitral" INDEX 01 00:00:00FILE "12. Armageddon Project & Promo - Righteous Infliction Of Retribution.wav" WAVE TRACK 12 AUDIO TITLE "Righteous Infliction Of Retribution" PERFORMER "Armageddon Project & Promo" INDEX 01 00:00:00FILE "13. Unexist - Smash.wav" WAVE TRACK 13 AUDIO TITLE "Smash" PERFORMER "Unexist" INDEX 01 00:00:00FILE "14. Ritchie & Marciano Gambino - Talk Of Torture.wav" WAVE TRACK 14 AUDIO TITLE "Talk Of Torture" PERFORMER "Ritchie & Marciano Gambino" INDEX 01 00:00:00FILE "15. Despairful Tomorrow & Xenophex - Viral Mind.wav" WAVE TRACK 15 AUDIO TITLE "Viral Mind" PERFORMER "Despairful Tomorrow & Xenophex" INDEX 01 00:00:00FILE "16. DJ Skinhead - At War Again (DJ Promo Remix).wav" WAVE TRACK 16 AUDIO TITLE "At War Again (DJ Promo Remix)" PERFORMER "DJ Skinhead" INDEX 01 00:00:00

_________________
Показать сообщения:    

Текущее время: Сегодня 20:42

Часовой пояс: GMT



Вы не можете начинать темы
Вы не можете отвечать на сообщения
Вы не можете редактировать свои сообщения
Вы не можете удалять свои сообщения
Вы не можете голосовать в опросах
Вы не можете прикреплять файлы к сообщениям
Вы не можете скачивать файлы