Ивановский Торрент трекер
Яндекс.Погода
 

[Цитировать]
HUNTER

Hocus Pocus / God Devil Hell Heaven
Жанр: Hardcore, Techno, Acid
Носитель: CDM
Год издания: 1997
Издатель (лейбл): CNR Music
Номер по каталогу: 2003244
Аудиокодек: FLAC (*.flac)
Тип рипа: tracks+.cue
Битрейт аудио: lossless
Продолжительность: 28:18
Источник (релизер): what.cd
Наличие сканов в содержимом раздачи: нет
Треклист:
01. Hocus Pocus - God, Devil, Hell, Heaven (Station Edit) [03:38]
02. Hocus Pocus - Devil's Cut [04:59]
03. Hocus Pocus - God, Devil, Hell, Heaven (Secret Knowledge Remix) [09:51]
04. Hocus Pocus - God, Devil, Hell, Heaven (Hard Mix) [04:14]
05. Hocus Pocus - God, Devil, Hell, Heaven (Album Version) [05:34]

Лог создания рипа

Exact Audio Copy V1.0 beta 3 from 29. August 2011
EAC extraction logfile from 14. November 2014, 18:55
Hocus Pocus / God Devil Hell Heaven
Used drive : ASUS DRW-24F1ST a Adapter: 0 ID: 1
Read mode : SecureUtilize accurate stream : YesDefeat audio cache : YesMake use of C2 pointers : No
Read offset correction : 6Overread into Lead-In and Lead-Out : NoFill up missing offset samples with silence : YesDelete leading and trailing silent blocks : NoNull samples used in CRC calculations : YesUsed interface : Native Win32 interface for Win NT & 2000Gap handling : Appended to previous track
Used output format : User Defined EncoderSelected bitrate : 1024 kBit/sQuality : HighAdd ID3 tag : NoCommand line compressor : F:\Exact Audio Copy\Flac\flac.exeAdditional command line options : -8 -V -T "ARTIST=%artist%" -T "TITLE=%title%" -T "ALBUM=%albumtitle%" -T "DATE=%year%" -T "TRACKNUMBER=%tracknr%" -T "GENRE=%genre%" -T "PERFORMER=%albuminterpret%" -T "COMPOSER=%composer%" %haslyrics%--tag-from-file=LYRICS="%lyricsfile%"%haslyrics% -T "ALBUMARTIST=%albumartist%" -T "DISCNUMBER=%cdnumber%" -T "TOTALDISCS=%totalcds%" -T "TOTALTRACKS=%numtracks%" -T "COMMENT=%comment%" %source% -o %dest%
TOC of the extracted CD
Track | Start | Length | Start sector | End sector --------------------------------------------------------- 1 | 0:00.00 | 3:38.33 | 0 | 16382 2 | 3:38.33 | 4:59.68 | 16383 | 38875 3 | 8:38.26 | 9:51.39 | 38876 | 83239 4 | 18:29.65 | 4:14.37 | 83240 | 102326 5 | 22:44.27 | 5:34.26 | 102327 | 127402
Track 1
Filename H:\EAC rips\FLAC\Hocus Pocus - God Devil Hell Heaven (CDS) (1997) [FLAC]\01 - God, Devil, Hell, Heaven (Station Edit).wav
Pre-gap length 0:00:02.00
Peak level 89.1 % Extraction speed 1.5 X Track quality 99.9 % Test CRC 16CDEFDF Copy CRC 16CDEFDF Track not present in AccurateRip database Copy OK
Track 2
Filename H:\EAC rips\FLAC\Hocus Pocus - God Devil Hell Heaven (CDS) (1997) [FLAC]\02 - Devil's Cut.wav
Pre-gap length 0:00:01.60
Peak level 89.1 % Extraction speed 2.0 X Track quality 100.0 % Test CRC 83E7B973 Copy CRC 83E7B973 Track not present in AccurateRip database Copy OK
Track 3
Filename H:\EAC rips\FLAC\Hocus Pocus - God Devil Hell Heaven (CDS) (1997) [FLAC]\03 - God, Devil, Hell, Heaven (Secret Knowledge Remix).wav
Pre-gap length 0:00:01.60
Peak level 89.1 % Extraction speed 2.4 X Track quality 100.0 % Test CRC 48DC924D Copy CRC 48DC924D Track not present in AccurateRip database Copy OK
Track 4
Filename H:\EAC rips\FLAC\Hocus Pocus - God Devil Hell Heaven (CDS) (1997) [FLAC]\04 - God, Devil, Hell, Heaven (Hard Mix).wav
Pre-gap length 0:00:01.60
Peak level 89.1 % Extraction speed 2.5 X Track quality 100.0 % Test CRC 104390D0 Copy CRC 104390D0 Track not present in AccurateRip database Copy OK
Track 5
Filename H:\EAC rips\FLAC\Hocus Pocus - God Devil Hell Heaven (CDS) (1997) [FLAC]\05 - God, Devil, Hell, Heaven (Album Version).wav
Pre-gap length 0:00:01.60
Peak level 99.9 % Extraction speed 2.3 X Track quality 99.9 % Test CRC 76BECBA1 Copy CRC 76BECBA1 Track not present in AccurateRip database Copy OK
None of the tracks are present in the AccurateRip database
No errors occurred
End of status report
---- CUETools DB Plugin V2.1.3
[CTDB TOCID: ig6W0eau7gcpRoo38ag4fwm8K7M-] disk not present in database, Submit result: ig6W0eau7gcpRoo38ag4fwm8K7M- has been uploaded
==== Log checksum 7479940CA0598D4F0A83903A1E45333750838F54E2F29A24172C4B433A34B4D1 ====

Содержание индексной карты (.CUE)

REM GENRE ElectronicREM DATE 1997REM DISCID 2106A205REM COMMENT "ExactAudioCopy v1.0b3"PERFORMER "Hocus Pocus"TITLE "God Devil Hell Heaven"FILE "01 - God, Devil, Hell, Heaven (Station Edit).wav" WAVE TRACK 01 AUDIO TITLE "God, Devil, Hell, Heaven (Station Edit)" PERFORMER "Hocus Pocus" INDEX 01 00:00:00 TRACK 02 AUDIO TITLE "Devil's Cut" PERFORMER "Hocus Pocus" INDEX 00 03:36:63FILE "02 - Devil's Cut.wav" WAVE INDEX 01 00:00:00 TRACK 03 AUDIO TITLE "God, Devil, Hell, Heaven (Secret Knowledge Remix)" PERFORMER "Hocus Pocus" INDEX 00 04:58:23FILE "03 - God, Devil, Hell, Heaven (Secret Knowledge Remix).wav" WAVE INDEX 01 00:00:00 TRACK 04 AUDIO TITLE "God, Devil, Hell, Heaven (Hard Mix)" PERFORMER "Hocus Pocus" INDEX 00 09:49:69FILE "04 - God, Devil, Hell, Heaven (Hard Mix).wav" WAVE INDEX 01 00:00:00 TRACK 05 AUDIO TITLE "God, Devil, Hell, Heaven (Album Version)" PERFORMER "Hocus Pocus" INDEX 00 04:12:67FILE "05 - God, Devil, Hell, Heaven (Album Version).wav" WAVE INDEX 01 00:00:00
0 человек читают эту тему: 0 пользователей, 0 скрытых пользователей, 0 гостей

Показать сообщения:    

Текущее время: 23-Авг 16:47

Часовой пояс: UTC - 1


Вы не можете начинать темы
Вы не можете отвечать на сообщения
Вы не можете редактировать свои сообщения
Вы не можете удалять свои сообщения
Вы не можете голосовать в опросах
Вы не можете прикреплять файлы к сообщениям
Вы не можете скачивать файлы

!ВНИМАНИЕ!
Сайт не предоставляет электронные версии произведений, а занимается лишь коллекционированием и каталогизацией ссылок, присылаемых и публикуемых на форуме нашими читателями. Если вы являетесь правообладателем какого-либо представленного материала и не желаете, чтобы ссылка на него находилась в нашем каталоге, свяжитесь с нами, и мы незамедлительно удалим ее. Файлы для обмена на трекере предоставлены пользователями сайта, и администрация не несет ответственности за их содержание. Просьба не заливать файлы, защищенные авторскими правами, а также файлы нелегального содержания!