Важное объявление!
У Нас Все раздачи мультитрекерные, при нуле пиров в релизах, можете смело вставать на закачку!
 
Автор Сообщение

HUNTER

Стаж:
4 года 4 месяца
Сообщений:
56790

Репутация: 101

[+] [-]
Вне форума [Профиль] [ЛС]

Gringo / Executed By The FBI
Жанр: Hardcore, Techno, Acid
Носитель: CD
Страна-производитель диска: Germany
Год издания: 1993
Издатель (лейбл): Mono Tone
Номер по каталогу: MONO 027
Аудиокодек: FLAC (*.flac)
Тип рипа: image+.cue
Битрейт аудио: lossless
Продолжительность: 57:27
Источник (релизер): Рип с диска из собственной коллекции.
Наличие сканов в содержимом раздачи: нет
Треклист:
1 Slayer 4:42
2 Executed By The FBI 5:00
3 Rules 4:00
4 VVV 4:01
5 Psycho In Disneyland 4:20
6 Sperma 6:15
7 Duell In Ducktown 4:38
8 Autogen 4:14
9 Let's Hope ... 3:27
10 Here I Am 4:41
11 Vega 4:23
12 Creme 4:02
13 Contamination 3:38

Лог создания рипа

Exact Audio Copy V1.0 beta 3 from 29. August 2011
EAC extraction logfile from 7. October 2014, 19:57
Gringo / Executed by the FBI
Used drive : PIONEER DVD-RW DVR-218L Adapter: 3 ID: 0
Read mode : SecureUtilize accurate stream : YesDefeat audio cache : YesMake use of C2 pointers : No
Read offset correction : 6Overread into Lead-In and Lead-Out : NoFill up missing offset samples with silence : YesDelete leading and trailing silent blocks : NoNull samples used in CRC calculations : YesUsed interface : Installed external ASPI interface
Used output format : User Defined EncoderSelected bitrate : 128 kBit/sQuality : HighAdd ID3 tag : NoCommand line compressor : C:\Program Files (x86)\Exact Audio Copy\Flac\flac.exeAdditional command line options : -V -8 %source%
TOC of the extracted CD
Track | Start | Length | Start sector | End sector --------------------------------------------------------- 1 | 0:00.00 | 4:42.45 | 0 | 21194 2 | 4:42.45 | 5:00.00 | 21195 | 43694 3 | 9:42.45 | 4:00.12 | 43695 | 61706 4 | 13:42.57 | 4:01.55 | 61707 | 79836 5 | 17:44.37 | 4:20.48 | 79837 | 99384 6 | 22:05.10 | 6:15.47 | 99385 | 127556 7 | 28:20.57 | 4:38.40 | 127557 | 148446 8 | 32:59.22 | 4:14.58 | 148447 | 167554 9 | 37:14.05 | 3:27.52 | 167555 | 183131 10 | 40:41.57 | 4:41.73 | 183132 | 204279 11 | 45:23.55 | 4:23.57 | 204280 | 224061 12 | 49:47.37 | 4:02.05 | 224062 | 242216 13 | 53:49.42 | 3:38.03 | 242217 | 258569
Range status and errors
Selected range
Filename D:\Новая папка\Gringo - Executed by the FBI.wav
Peak level 93.7 % Extraction speed 1.8 X Range quality 100.0 % Test CRC FA0D200A Copy CRC FA0D200A Copy OK
No errors occurred
AccurateRip summary
Track 1 not present in databaseTrack 2 not present in databaseTrack 3 not present in databaseTrack 4 not present in databaseTrack 5 not present in databaseTrack 6 not present in databaseTrack 7 not present in databaseTrack 8 not present in databaseTrack 9 not present in databaseTrack 10 not present in databaseTrack 11 not present in databaseTrack 12 not present in databaseTrack 13 not present in database
None of the tracks are present in the AccurateRip database
End of status report
==== Log checksum 261FB0B26BDCCB41A7F420B5E147A52B923D2F2417091EDD7FDF42E6200828E9 ====
Discogs

_________________
Показать сообщения:    

Текущее время: Сегодня 18:28

Часовой пояс: GMT



Вы не можете начинать темы
Вы не можете отвечать на сообщения
Вы не можете редактировать свои сообщения
Вы не можете удалять свои сообщения
Вы не можете голосовать в опросах
Вы не можете прикреплять файлы к сообщениям
Вы не можете скачивать файлы