Ивановский Торрент трекер
Яндекс.Погода
 

[Цитировать]
HUNTER

MC Rage - Fuck Macarena
Жанр: Hardcore
Страна-производитель диска: Netherlands
Год издания: 1996
Издатель (лейбл): High Fashion Music / ZYX Music
Номер по каталогу: MS 325-8
Страна: Netherlands
Аудиокодек: FLAC (*.flac)
Тип рипа: tracks+.cue
Битрейт аудио: lossless
Продолжительность: 12:14
Источник (релизер): Собственный рип
Наличие сканов в содержимом раздачи: да
Треклист:
01 - Fuck Macarena (Radio Mix)
02 - Macarena (Fuck Macarena Mix)
03 - Fuck Macarena

Лог создания рипа

Exact Audio Copy V1.0 beta 3 from 29. August 2011
EAC extraction logfile from 14. May 2012, 16:47
MC Rage / Fuck Macarena
Used drive : ATAPI iHAS124 B Adapter: 1 ID: 4
Read mode : SecureUtilize accurate stream : YesDefeat audio cache : YesMake use of C2 pointers : No
Read offset correction : 6Overread into Lead-In and Lead-Out : NoFill up missing offset samples with silence : YesDelete leading and trailing silent blocks : NoNull samples used in CRC calculations : YesUsed interface : Native Win32 interface for Win NT & 2000Gap handling : Appended to previous track
Used output format : User Defined EncoderSelected bitrate : 896 kBit/sQuality : HighAdd ID3 tag : NoCommand line compressor : C:\Program Files (x86)\FLAC\flac.exeAdditional command line options : -5 --delete-input-file -V -T Title="%title%" -T Artist="%artist%" -T Date="%year%" -T Tracknumber="%tracknr%" -T Album="%albumtitle%" %source%
TOC of the extracted CD
Track | Start | Length | Start sector | End sector --------------------------------------------------------- 1 | 0:00.00 | 3:08.20 | 0 | 14119 2 | 3:08.20 | 4:48.73 | 14120 | 35792 3 | 7:57.18 | 4:16.39 | 35793 | 55031
Track 1
Filename T:\MC Rage - Fuck Macarena (ZYX-MS325-8) [1996]\01 - Fuck Macarena (Radio Mix).wav
Pre-gap length 0:00:02.00
Peak level 94.9 % Extraction speed 4.7 X Track quality 100.0 % Test CRC 1D831889 Copy CRC 1D831889 Track not present in AccurateRip database Copy OK
Track 2
Filename T:\MC Rage - Fuck Macarena (ZYX-MS325-8) [1996]\02 - Macarena (Fuck Macarena Mix).wav
Pre-gap length 0:00:01.73
Peak level 94.9 % Extraction speed 5.6 X Track quality 100.0 % Test CRC C444B0D4 Copy CRC C444B0D4 Track not present in AccurateRip database Copy OK
Track 3
Filename T:\MC Rage - Fuck Macarena (ZYX-MS325-8) [1996]\03 - Fuck Macarena.wav
Pre-gap length 0:00:01.73
Peak level 94.9 % Extraction speed 6.1 X Track quality 100.0 % Test CRC 3398C643 Copy CRC 3398C643 Track not present in AccurateRip database Copy OK
None of the tracks are present in the AccurateRip database
No errors occurred
End of status report
---- CUETools DB Plugin V2.1.3
[CTDB TOCID: hC1ZwmAn3asL4lo0eFTpGWrI3U0-] disk not present in database, Submit result: hC1ZwmAn3asL4lo0eFTpGWrI3U0- has been uploaded
==== Log checksum 71C288FDD0A6CCA1E886A625E5D2DB8E0D139283634BB1ACD72B57E778F5336F ====

Содержание индексной карты (.CUE)

REM GENRE HardcoreREM DATE 1996REM DISCID 2002DD03REM COMMENT "ExactAudioCopy v1.0b3"PERFORMER "MC Rage"TITLE "Fuck Macarena"FILE "01 - Fuck Macarena (Radio Mix).wav" WAVE TRACK 01 AUDIO TITLE "Fuck Macarena (Radio Mix)" PERFORMER "MC Rage" INDEX 01 00:00:00 TRACK 02 AUDIO TITLE "Macarena (Fuck Macarena Mix)" PERFORMER "MC Rage" INDEX 00 03:06:22FILE "02 - Macarena (Fuck Macarena Mix).wav" WAVE INDEX 01 00:00:00 TRACK 03 AUDIO TITLE "Fuck Macarena" PERFORMER "MC Rage" INDEX 00 04:47:00FILE "03 - Fuck Macarena.wav" WAVE INDEX 01 00:00:00

Лог проверки качества

-----------------------
DON'T MODIFY THIS FILE
-----------------------
PERFORMER: auCDtect Task Manager, ver. 1.5.1RC6 build 1.5.1.7Copyright (c) 2008-2010 y-soft. All rights reservedhttp://y-soft.org
ANALYZER: auCDtect: CD records authenticity detector, version 0.8.2Copyright (c) 2004 Oleg Berngardt. All rights reserved.Copyright (c) 2004 Alexander Djourik. All rights reserved.
FILE: 03 - Fuck Macarena.flac Size: 29959708 Hash: C9A6221BDBC1FABC6416A0C8207E94E7 Accuracy: -m0 Conclusion: CDDA 100% Signature: B2C9B46544B67A1AE9988C3C61FE7BD6186C7CEBFILE: 02 - Macarena (Fuck Macarena Mix).flac Size: 33422092 Hash: 99B5E25157C37DDC6EE0AE2DA73E7375 Accuracy: -m0 Conclusion: CDDA 100% Signature: C4C08E1475193BBD7A19F326BAB013954F7C179EFILE: 01 - Fuck Macarena (Radio Mix).flac Size: 21119048 Hash: 5DD4D67A6D5F8FA6CB5790A8236070D3 Accuracy: -m0 Conclusion: CDDA 100% Signature: 7F8F0D710EF29665A0078BDE11B785645B6C93CD

Скриншот спектра частот



Показать сообщения:    

Текущее время: 11-Дек 23:09

Часовой пояс: UTC ± 0


Вы не можете начинать темы
Вы не можете отвечать на сообщения
Вы не можете редактировать свои сообщения
Вы не можете удалять свои сообщения
Вы не можете голосовать в опросах
Вы не можете прикреплять файлы к сообщениям
Вы не можете скачивать файлы

!ВНИМАНИЕ!
Сайт не предоставляет электронные версии произведений, а занимается лишь коллекционированием и каталогизацией ссылок, присылаемых и публикуемых на форуме нашими читателями. Если вы являетесь правообладателем какого-либо представленного материала и не желаете, чтобы ссылка на него находилась в нашем каталоге, свяжитесь с нами, и мы незамедлительно удалим ее. Файлы для обмена на трекере предоставлены пользователями сайта, и администрация не несет ответственности за их содержание. Просьба не заливать файлы, защищенные авторскими правами, а также файлы нелегального содержания!