(Hardcore, Hard Trance) VA - Megarave III - Radioactive Zone - 1994, FLAC (image+.cue), lossless :: Ивановский Торрент трекер
Важное объявление!
У Нас Все раздачи мультитрекерные, при нуле пиров в релизах, можете смело вставать на закачку!
Статистика раздачи
Размер:     |    Зарегистрирован:     |    Скачан:     |   
Нет
 
     
 
 
Автор Сообщение

HUNTER

Стаж:
4 года 11 месяцев
Сообщений:
66112

Репутация: 101

[+] [-]
Вне форума [Профиль] [ЛС]

Megarave III - Radioactive Zone
Жанр: Hardcore, Hard Trance
Страна-производитель диска: Germany
Год издания: 1994
Издатель (лейбл): SPV GmbH
Номер по каталогу: SPV 089-66912
Аудиокодек: FLAC (*.flac)
Тип рипа: image+.cue
Битрейт аудио: lossless
Продолжительность: 65:23 + 77:50
Источник (релизер): Рип с диска из собственной коллекции.
Наличие сканов в содержимом раздачи: нет
Треклист:
CD 1
Hardcore
1-1 Unknown Artist – Intro - Prospective 2:22
1-2 Ilsa Gold – 4 Blond Nuns (Chicago Remix) 5:27
1-3 Franky Jones & D.J. Bountyhunter – Speed Area 6:03
1-4 Lenny Dee – Kenetic Energy Penetrator 5:41
1-5 Genlog – Never Stop This Revolution 5:26
1-6 Prophet – One, Two, Three, Four…Do It! 5:27
1-7 Evil Maniax – Goddamn D.J. (D.J. Paul Mix) 4:29
1-8 Undercover Anarchist – Amman On XTC (Human Resource Remix) 4:23
1-9 Reanimator – Fuck This 5:41
1-10 Raver's Nature – Day Of Justice 4:39
1-11 Hardsequencer – Soundvibrations 4:19
1-12 D.J. Rob – City To Country 5:15
1-13 P.C.P. – The Phuture (Part 1) 3:49
1-14 Unknown Artist – Outro - Marshellow 2:15
CD 2
Trancecore
2-1 Unknown Artist – Intro - Center Of Body 2:01
2-2 Laurent Garnier – Dark Comet 6:23
2-3 Housedisciples – New Etje 6:35
2-4 Microwave Prince – Trancemitter Online 7:46
2-5 Boscaland – Tokio Infanta-Ci 8:09
2-6 Acrid Abeyance – Exposure Track 8:09
2-7 Mo-Tune – Infinite Climax 6:49
2-8 DJ Buzz & ACE – Killer (4 Ours-Mix) 5:48
2-9 Sonicity – Solaris 5 6:05
2-10 N.U.K.E. & Genlog – Can You Feel It? (Housecut) 4:46
2-11 Alien Factory – Destiny 6:40
2-12 Propaganda – Dr. Mabuse (Machinery Remix) 6:36
2-13 Unknown Artist – Outro - Endtrance 1:58

Лог создания рипа CD 1

Exact Audio Copy V1.0 beta 3 from 29. August 2011
Отчёт EAC об извлечении, выполненном 16. июня 2012, 11:59
Various / Megarave III - Radioactive Zone (CD1_2)
Дисковод: PIONEER DVD-RW DVR-218L Adapter: 2 ID: 0
Режим чтения : ДостоверностьИспользование точного потока : ДаОтключение кэша аудио : ДаИспользование указателей C2 : Нет
Коррекция смещения при чтении : 6Способность читать области Lead-in и Lead-out : НетЗаполнение пропущенных сэмплов тишиной : ДаУдаление блоков с тишиной в начале и конце : НетПри вычислениях CRC использовались нулевые сэмплы : ДаИнтерфейс : Встроенный Win32-интерфейс для Win NT/2000
Выходной формат : Пользовательский кодировщикВыбранный битрейт : 128 kBit/sКачество : ВысокийДобавление ID3-тега : НетУтилита сжатия : C:\Program Files (x86)\Exact Audio Copy\Flac\flac.exeДополнительные параметры : -V -8 -T "Date=%year%" -T "Genre=%genre%" %source%
TOC извлечённого CD
Трек | Старт | Длительность | Начальный сектор | Конечный сектор --------------------------------------------------------------------- 1 | 0:00.00 | 2:22.40 | 0 | 10689 2 | 2:22.40 | 5:27.60 | 10690 | 35274 3 | 7:50.25 | 6:03.10 | 35275 | 62509 4 | 13:53.35 | 5:41.05 | 62510 | 88089 5 | 19:34.40 | 5:26.07 | 88090 | 112546 6 | 25:00.47 | 5:27.33 | 112547 | 137104 7 | 30:28.05 | 4:29.32 | 137105 | 157311 8 | 34:57.37 | 4:23.55 | 157312 | 177091 9 | 39:21.17 | 5:41.70 | 177092 | 202736 10 | 45:03.12 | 4:39.25 | 202737 | 223686 11 | 49:42.37 | 4:19.65 | 223687 | 243176 12 | 54:02.27 | 5:15.70 | 243177 | 266871 13 | 59:18.22 | 3:49.63 | 266872 | 284109 14 | 63:08.10 | 2:15.37 | 284110 | 294271
Характеристики диапазона извлечения и сообщения об ошибках
Выбранный диапазон
Имя файла F:\Новая папка\Various - Megarave III - Radioactive Zone (CD1_2).wav
Пиковый уровень 100.0 % Скорость извлечения 2.0 X Качество диапазона 100.0 % CRC теста 1C1BC2FF CRC копии 1C1BC2FF Копирование... OK
Ошибок не произошло
AccurateRip: сводка
Трек 1 : извлечено точно (доверие 4) [E3B276F4] (AR v1)Трек 2 : извлечено точно (доверие 4) [E939B27E] (AR v1)Трек 3 : извлечено точно (доверие 4) [7517064E] (AR v1)Трек 4 : извлечено точно (доверие 4) [7D86F84C] (AR v1)Трек 5 : извлечено точно (доверие 4) [4BE44DA5] (AR v1)Трек 6 : извлечено точно (доверие 4) [F3DF5059] (AR v1)Трек 7 : извлечено точно (доверие 4) [0DFD81FA] (AR v1)Трек 8 : извлечено точно (доверие 4) [961B35EE] (AR v1)Трек 9 : извлечено точно (доверие 4) [98DB0827] (AR v1)Трек 10 : извлечено точно (доверие 4) [C5B602EC] (AR v1)Трек 11 : извлечено точно (доверие 4) [2E664C60] (AR v1)Трек 12 : извлечено точно (доверие 4) [E52DB002] (AR v1)Трек 13 : извлечено точно (доверие 4) [CBE63148] (AR v1)Трек 14 : извлечено точно (доверие 4) [9F194C1A] (AR v1)
Все треки извлечены точно
Конец отчёта
==== Контрольная сумма отчёта 253E89E90CE65C73FEB5EF8D7C061DCFBB1BFEA565912590F42E4E7BBB7EF2CD ====

Лог создания рипа CD 2

Exact Audio Copy V1.0 beta 3 from 29. August 2011
Отчёт EAC об извлечении, выполненном 17. июня 2012, 11:22
Various / Megarave III - Radioactive Zone (CD2_2)
Дисковод: PIONEER DVD-RW DVR-218L Adapter: 2 ID: 0
Режим чтения : ДостоверностьИспользование точного потока : ДаОтключение кэша аудио : ДаИспользование указателей C2 : Нет
Коррекция смещения при чтении : 6Способность читать области Lead-in и Lead-out : НетЗаполнение пропущенных сэмплов тишиной : ДаУдаление блоков с тишиной в начале и конце : НетПри вычислениях CRC использовались нулевые сэмплы : ДаИнтерфейс : Встроенный Win32-интерфейс для Win NT/2000
Выходной формат : Пользовательский кодировщикВыбранный битрейт : 128 kBit/sКачество : ВысокийДобавление ID3-тега : НетУтилита сжатия : C:\Program Files (x86)\Exact Audio Copy\Flac\flac.exeДополнительные параметры : -V -8 -T "Date=%year%" -T "Genre=%genre%" %source%
TOC извлечённого CD
Трек | Старт | Длительность | Начальный сектор | Конечный сектор --------------------------------------------------------------------- 1 | 0:00.00 | 2:01.22 | 0 | 9096 2 | 2:01.22 | 6:23.25 | 9097 | 37846 3 | 8:24.47 | 6:35.38 | 37847 | 67509 4 | 15:00.10 | 7:46.15 | 67510 | 102474 5 | 22:46.25 | 8:09.45 | 102475 | 139194 6 | 30:55.70 | 8:09.60 | 139195 | 175929 7 | 39:05.55 | 6:49.15 | 175930 | 206619 8 | 45:54.70 | 5:48.07 | 206620 | 232726 9 | 51:43.02 | 6:05.38 | 232727 | 260139 10 | 57:48.40 | 4:46.27 | 260140 | 281616 11 | 62:34.67 | 6:40.53 | 281617 | 311669 12 | 69:15.45 | 6:36.30 | 311670 | 341399 13 | 75:52.00 | 1:58.15 | 341400 | 350264
Характеристики диапазона извлечения и сообщения об ошибках
Выбранный диапазон
Имя файла F:\Новая папка\Various - Megarave III - Radioactive Zone (CD2_2).wav
Пиковый уровень 99.9 % Скорость извлечения 2.2 X Качество диапазона 100.0 % CRC теста 91A11845 CRC копии 91A11845 Копирование... OK
Ошибок не произошло
AccurateRip: сводка
Трек 1 : извлечено точно (доверие 2) [BF02BC9C] (AR v1)Трек 2 : извлечено точно (доверие 2) [1D9F65B7] (AR v1)Трек 3 : извлечено точно (доверие 2) [1215A97C] (AR v1)Трек 4 : извлечено точно (доверие 2) [55D4EB82] (AR v1)Трек 5 : извлечено точно (доверие 2) [B4622BEA] (AR v1)Трек 6 : извлечено точно (доверие 2) [85F99CA6] (AR v1)Трек 7 : извлечено точно (доверие 2) [C405D2B1] (AR v1)Трек 8 : извлечено точно (доверие 2) [763C76E3] (AR v1)Трек 9 : извлечено точно (доверие 2) [B0FC8FCA] (AR v1)Трек 10 : извлечено точно (доверие 2) [AEDDA7AF] (AR v1)Трек 11 : извлечено точно (доверие 2) [BC92BDF4] (AR v1)Трек 12 : извлечено точно (доверие 2) [638C8B7C] (AR v1)Трек 13 : извлечено точно (доверие 2) [C8D28582] (AR v1)
Все треки извлечены точно
Конец отчёта
==== Контрольная сумма отчёта A53C349799237340E3C495CCBBBA20E23E6941BBA454D909B60C23973C155ACE ====
Discogs

_________________
Показать сообщения:    

Текущее время: Сегодня 19:15

Часовой пояс: GMT



Вы не можете начинать темы
Вы не можете отвечать на сообщения
Вы не можете редактировать свои сообщения
Вы не можете удалять свои сообщения
Вы не можете голосовать в опросах
Вы не можете прикреплять файлы к сообщениям
Вы не можете скачивать файлы