Важное объявление!
У Нас Все раздачи мультитрекерные, при нуле пиров в релизах, можете смело вставать на закачку!
 
Автор Сообщение

HUNTER

Стаж:
4 года 4 месяца
Сообщений:
56809

Репутация: 101

[+] [-]
Вне форума [Профиль] [ЛС]

Rave Hits Compilation Vol. 2
Жанр: Hardcore, Hard Trance, Happy Hardcore
Носитель: CD
Год издания: 1996
Издатель (лейбл): Ariola
Номер по каталогу: 74321 34128 2
Аудиокодек: FLAC (*.flac)
Тип рипа: tracks+.cue
Битрейт аудио: lossless
Продолжительность: 02:35:43
Источник (релизер): обмен
Наличие сканов в содержимом раздачи: да
Треклист:
CD 1
01. Scooter - Back In The U.K. (Radio Version) (3:25)
02. Technohead - Headsex (Electric Salmon Radio Mix) (2:52)
03. Raver's Nature - Bring Me Noise (Westbam Remix) (5:19)
04. RMB - Passport To Heaven (Video Version) (3:16)
05. Ultra Sonic - Make That Move (Radio Edit) (3:28)
06. Genlog - Ceasefire (5:47)
07. House Of Insanity - Don't U Know (Empi Feat. DJ Pill Mix) (4:58)
08. Music Instructor - Hymn (Single Edit) (3:54)
09. Shee - Do You Love Me (RMB Remix) (5:10)
10. Steve Mason - It Looks Like Another Fine Day (7:35)
11. Paul Van Dyk - 45 RPM (5:39)
12. Hardsequencer - The Dancing Nations (Short Mix) (3:39)
13. The Hypnoist - House Is Mine (Mijk Van Dijk Remix) (8:38)
14. Tomcraft - Viva (5:46)
15. Resistance D - A Scientific Fact (8:34)
CD 2
01. DJ Hooligan - I Want You (Single Mix) (4:01)
02. Merlyn & 6 Wicked Kids - Grooveliker (6 Wicked Kids Mix) (7:25)
03. Green Velvet - Flash (Green Velvet Mix) (6:06)
04. Pizzaman - Happiness (Club Mix) (6:56)
05. Lords Of House - Got To Be House (Single Edit) (3:32)
06. Starsky & Hutch - Gimme More (6:12)
07. Mark NRG - There Is No Return (6:01)
08. DJ Steve L & Cyrus - Movin' (4:08)
09. Marco Zaffarano - Pandora's Box (7:51)
10. X Connection - Watch Them Dogs (Vocal Mix) (9:19)
11. DJ Raoul - The Bitch (Elmi's Short Mix) (3:04)
12. DJ Dick - Sono In Coma (Force Mass Motion Remix) (6:14)
13. Laurent Garnier - Pigalle (6:56)

logs and sheets

Log EAC CD 1
Exact Audio Copy V1.0 beta 4 from 7. December 2014
EAC extraction logfile from 13. June 2016, 14:34
Various Artists / Rave Hits Compilation Vol.2
Used drive : PIONEER DVD-RW DVRTD11RS Adapter: 1 ID: 0
Read mode : SecureUtilize accurate stream : YesDefeat audio cache : YesMake use of C2 pointers : No
Read offset correction : 6Overread into Lead-In and Lead-Out : NoFill up missing offset samples with silence : YesDelete leading and trailing silent blocks : NoNull samples used in CRC calculations : YesUsed interface : Native Win32 interface for Win NT & 2000Gap handling : Appended to previous track
Used output format : User Defined EncoderSelected bitrate : 1024 kBit/sQuality : HighAdd ID3 tag : NoCommand line compressor : C:\Program Files (x86)\Exact Audio Copy\Flac\flac.exeAdditional command line options : -8 -V -T "ARTIST=%artist%" -T "TITLE=%title%" -T "ALBUM=%albumtitle%" -T "DATE=%year%" -T "TRACKNUMBER=%tracknr%" -T "TOTALTRACKS=%numtracks%" -T "GENRE=%genre%" -T "ALBUMARTIST=%albumartist%" -T "ALBUM ARTIST=%albumartist%" -T "COMMENT=EAC Secure Mode, Test & Copy, AccurateRip, FLAC -8" %source%
TOC of the extracted CD
Track | Start | Length | Start sector | End sector --------------------------------------------------------- 1 | 0:00.32 | 3:25.33 | 32 | 15439 2 | 3:25.65 | 2:51.55 | 15440 | 28319 3 | 6:17.45 | 5:19.07 | 28320 | 52251 4 | 11:36.52 | 3:15.38 | 52252 | 66914 5 | 14:52.15 | 3:27.45 | 66915 | 82484 6 | 18:19.60 | 5:46.45 | 82485 | 108479 7 | 24:06.30 | 4:58.30 | 108480 | 130859 8 | 29:04.60 | 3:53.60 | 130860 | 148394 9 | 32:58.45 | 5:10.02 | 148395 | 171646 10 | 38:08.47 | 7:34.63 | 171647 | 205759 11 | 45:43.35 | 5:38.50 | 205760 | 231159 12 | 51:22.10 | 3:38.47 | 231160 | 247556 13 | 55:00.57 | 8:38.15 | 247557 | 286421 14 | 63:38.72 | 5:46.18 | 286422 | 312389 15 | 69:25.15 | 8:34.17 | 312390 | 350956
Track 1
Filename I:\EAC\Various Artists - Rave Hits Compilation Vol.2 (1996) [FLAC]\CD1\01 - Scooter - Back In The U.K. (Radio Version).wav
Pre-gap length 0:00:02.32
Peak level 99.0 % Extraction speed 1.3 X Track quality 100.0 % Test CRC 90494EE9 Copy CRC 90494EE9 Accurately ripped (confidence 2) [3C2D2A43] (AR v2) Copy OK
Track 2
Filename I:\EAC\Various Artists - Rave Hits Compilation Vol.2 (1996) [FLAC]\CD1\02 - Technohead - Headsex (Electric Salmon Radio Mix).wav
Pre-gap length 0:00:00.20
Peak level 100.0 % Extraction speed 1.3 X Track quality 100.0 % Test CRC 6ABE37FF Copy CRC 6ABE37FF Accurately ripped (confidence 2) [B5D0A8BB] (AR v2) Copy OK
Track 3
Filename I:\EAC\Various Artists - Rave Hits Compilation Vol.2 (1996) [FLAC]\CD1\03 - Raver's Nature - Bring Me Noise (Westbam Remix).wav
Pre-gap length 0:00:01.13
Peak level 99.0 % Extraction speed 1.6 X Track quality 100.0 % Test CRC 89EA2851 Copy CRC 89EA2851 Accurately ripped (confidence 2) [C46A6035] (AR v2) Copy OK
Track 4
Filename I:\EAC\Various Artists - Rave Hits Compilation Vol.2 (1996) [FLAC]\CD1\04 - RMB - Passport To Heaven (Video Version).wav
Pre-gap length 0:00:00.60
Peak level 99.0 % Extraction speed 1.4 X Track quality 99.9 % Test CRC 6B966823 Copy CRC 6B966823 Accurately ripped (confidence 2) [BE766E3C] (AR v2) Copy OK
Track 5
Filename I:\EAC\Various Artists - Rave Hits Compilation Vol.2 (1996) [FLAC]\CD1\05 - Ultra Sonic - Make That Move (Radio Edit).wav
Pre-gap length 0:00:00.53
Peak level 99.0 % Extraction speed 1.7 X Track quality 100.0 % Test CRC 64CED542 Copy CRC 64CED542 Accurately ripped (confidence 2) [DBF4AF26] (AR v2) Copy OK
Track 6
Filename I:\EAC\Various Artists - Rave Hits Compilation Vol.2 (1996) [FLAC]\CD1\06 - Genlog - Ceasefire.wav
Pre-gap length 0:00:01.03
Peak level 99.0 % Extraction speed 1.7 X Track quality 99.9 % Test CRC 829FB4E7 Copy CRC 829FB4E7 Accurately ripped (confidence 2) [1B2CD241] (AR v2) Copy OK
Track 7
Filename I:\EAC\Various Artists - Rave Hits Compilation Vol.2 (1996) [FLAC]\CD1\07 - House Of Insanity - Don't U Know (Empi Feat. DJ Pill Mix).wav
Pre-gap length 0:00:01.03
Peak level 99.0 % Extraction speed 2.0 X Track quality 100.0 % Test CRC F02F9E7A Copy CRC F02F9E7A Accurately ripped (confidence 2) [DF5D6AB2] (AR v2) Copy OK
Track 8
Filename I:\EAC\Various Artists - Rave Hits Compilation Vol.2 (1996) [FLAC]\CD1\08 - Music Instructor - Hymn (Single Edit).wav
Pre-gap length 0:00:00.60
Peak level 97.8 % Extraction speed 2.0 X Track quality 100.0 % Test CRC 6FBA3B4D Copy CRC 6FBA3B4D Accurately ripped (confidence 2) [D691427C] (AR v2) Copy OK
Track 9
Filename I:\EAC\Various Artists - Rave Hits Compilation Vol.2 (1996) [FLAC]\CD1\09 - Shee - Do You Love Me (RMB Remix).wav
Pre-gap length 0:00:00.45
Peak level 99.0 % Extraction speed 2.2 X Track quality 100.0 % Test CRC B37862AE Copy CRC B37862AE Accurately ripped (confidence 2) [5999294C] (AR v2) Copy OK
Track 10
Filename I:\EAC\Various Artists - Rave Hits Compilation Vol.2 (1996) [FLAC]\CD1\10 - Steve Mason - It Looks Like Another Fine Day.wav
Pre-gap length 0:00:00.25
Peak level 99.0 % Extraction speed 2.2 X Track quality 99.9 % Test CRC AE88EF9E Copy CRC AE88EF9E Accurately ripped (confidence 2) [11241310] (AR v2) Copy OK
Track 11
Filename I:\EAC\Various Artists - Rave Hits Compilation Vol.2 (1996) [FLAC]\CD1\11 - Paul Van Dyk - 45 RPM.wav
Pre-gap length 0:00:00.58
Peak level 99.0 % Extraction speed 2.5 X Track quality 100.0 % Test CRC 9B4C84FF Copy CRC 9B4C84FF Accurately ripped (confidence 2) [54099D6F] (AR v2) Copy OK
Track 12
Filename I:\EAC\Various Artists - Rave Hits Compilation Vol.2 (1996) [FLAC]\CD1\12 - Hardsequencer - The Dancing Nations (Short Mix).wav
Pre-gap length 0:00:00.68
Peak level 99.0 % Extraction speed 2.4 X Track quality 100.0 % Test CRC 7C31A7B5 Copy CRC 7C31A7B5 Accurately ripped (confidence 2) [2620E435] (AR v2) Copy OK
Track 13
Filename I:\EAC\Various Artists - Rave Hits Compilation Vol.2 (1996) [FLAC]\CD1\13 - The Hypnoist - House Is Mine (Mijk Van Dijk Remix).wav
Pre-gap length 0:00:00.57
Peak level 87.4 % Extraction speed 2.7 X Track quality 100.0 % Test CRC D25686F5 Copy CRC D25686F5 Accurately ripped (confidence 2) [07CB7757] (AR v2) Copy OK
Track 14
Filename I:\EAC\Various Artists - Rave Hits Compilation Vol.2 (1996) [FLAC]\CD1\14 - Tomcraft - Viva.wav
Pre-gap length 0:00:00.60
Peak level 99.7 % Extraction speed 2.5 X Track quality 99.9 % Test CRC D811703A Copy CRC D811703A Accurately ripped (confidence 2) [3E632D2D] (AR v2) Copy OK
Track 15
Filename I:\EAC\Various Artists - Rave Hits Compilation Vol.2 (1996) [FLAC]\CD1\15 - Resistance D - A Scientific Fact.wav
Pre-gap length 0:00:00.65
Peak level 99.0 % Extraction speed 3.0 X Track quality 100.0 % Test CRC FB72435F Copy CRC FB72435F Accurately ripped (confidence 2) [FD61F5D2] (AR v2) Copy OK
All tracks accurately ripped
No errors occurred
End of status report
---- CUETools DB Plugin V2.1.4
[CTDB TOCID: Y06W7Pw.kImnz4ZJ4Y9x3mBEYYw-] foundSubmit result: Y06W7Pw.kImnz4ZJ4Y9x3mBEYYw- has been confirmedTrack | CTDB Status 1 | (3/3) Accurately ripped 2 | (3/3) Accurately ripped 3 | (3/3) Accurately ripped 4 | (3/3) Accurately ripped 5 | (3/3) Accurately ripped 6 | (3/3) Accurately ripped 7 | (3/3) Accurately ripped 8 | (3/3) Accurately ripped 9 | (3/3) Accurately ripped 10 | (3/3) Accurately ripped 11 | (3/3) Accurately ripped 12 | (3/3) Accurately ripped 13 | (3/3) Accurately ripped 14 | (3/3) Accurately ripped 15 | (3/3) Accurately ripped
==== Log checksum 784395A21DEC8208746A34005DC51AD67EFA5EA65A44FD17A517E6F62DA220E9 ====

cue CD 1

REM GENRE RaveREM DATE 1996REM DISCID D712470FREM COMMENT "ExactAudioCopy v1.0b4"PERFORMER "Various Artists"TITLE "Rave Hits Compilation Vol.2"FILE "01 - Scooter - Back In The U.K. (Radio Version).wav" WAVE TRACK 01 AUDIO TITLE "Back In The U.K. (Radio Version)" PERFORMER "Scooter" PREGAP 00:00:32 INDEX 01 00:00:00 TRACK 02 AUDIO TITLE "Headsex (Electric Salmon Radio Mix)" PERFORMER "Technohead" INDEX 00 03:25:13FILE "02 - Technohead - Headsex (Electric Salmon Radio Mix).wav" WAVE INDEX 01 00:00:00 TRACK 03 AUDIO TITLE "Bring Me Noise (Westbam Remix)" PERFORMER "Raver's Nature" INDEX 00 02:50:42FILE "03 - Raver's Nature - Bring Me Noise (Westbam Remix).wav" WAVE INDEX 01 00:00:00 TRACK 04 AUDIO TITLE "Passport To Heaven (Video Version)" PERFORMER "RMB" INDEX 00 05:18:22FILE "04 - RMB - Passport To Heaven (Video Version).wav" WAVE INDEX 01 00:00:00 TRACK 05 AUDIO TITLE "Make That Move (Radio Edit)" PERFORMER "Ultra Sonic" INDEX 00 03:14:60FILE "05 - Ultra Sonic - Make That Move (Radio Edit).wav" WAVE INDEX 01 00:00:00 TRACK 06 AUDIO TITLE "Ceasefire" PERFORMER "Genlog" INDEX 00 03:26:42FILE "06 - Genlog - Ceasefire.wav" WAVE INDEX 01 00:00:00 TRACK 07 AUDIO TITLE "Don't U Know (Empi Feat. DJ Pill Mix)" PERFORMER "House Of Insanity" INDEX 00 05:45:42FILE "07 - House Of Insanity - Don't U Know (Empi Feat. DJ Pill Mix).wav" WAVE INDEX 01 00:00:00 TRACK 08 AUDIO TITLE "Hymn (Single Edit)" PERFORMER "Music Instructor" INDEX 00 04:57:45FILE "08 - Music Instructor - Hymn (Single Edit).wav" WAVE INDEX 01 00:00:00 TRACK 09 AUDIO TITLE "Do You Love Me (RMB Remix)" PERFORMER "Shee" INDEX 00 03:53:15FILE "09 - Shee - Do You Love Me (RMB Remix).wav" WAVE INDEX 01 00:00:00 TRACK 10 AUDIO TITLE "It Looks Like Another Fine Day" PERFORMER "Steve Mason" INDEX 00 05:09:52FILE "10 - Steve Mason - It Looks Like Another Fine Day.wav" WAVE INDEX 01 00:00:00 TRACK 11 AUDIO TITLE "45 RPM" PERFORMER "Paul Van Dyk" INDEX 00 07:34:05FILE "11 - Paul Van Dyk - 45 RPM.wav" WAVE INDEX 01 00:00:00 TRACK 12 AUDIO TITLE "The Dancing Nations (Short Mix)" PERFORMER "Hardsequencer" INDEX 00 05:37:57FILE "12 - Hardsequencer - The Dancing Nations (Short Mix).wav" WAVE INDEX 01 00:00:00 TRACK 13 AUDIO TITLE "House Is Mine (Mijk Van Dijk Remix)" PERFORMER "The Hypnoist" INDEX 00 03:37:65FILE "13 - The Hypnoist - House Is Mine (Mijk Van Dijk Remix).wav" WAVE INDEX 01 00:00:00 TRACK 14 AUDIO TITLE "Viva" PERFORMER "Tomcraft" INDEX 00 08:37:30FILE "14 - Tomcraft - Viva.wav" WAVE INDEX 01 00:00:00 TRACK 15 AUDIO TITLE "A Scientific Fact" PERFORMER "Resistance D" INDEX 00 05:45:28FILE "15 - Resistance D - A Scientific Fact.wav" WAVE INDEX 01 00:00:00

Log EAC CD 2

Exact Audio Copy V1.0 beta 4 from 7. December 2014
EAC extraction logfile from 13. June 2016, 16:54
Various Artists / Rave Hits Compilation Vol.2
Used drive : PIONEER DVD-RW DVRTD11RS Adapter: 1 ID: 0
Read mode : SecureUtilize accurate stream : YesDefeat audio cache : YesMake use of C2 pointers : No
Read offset correction : 6Overread into Lead-In and Lead-Out : NoFill up missing offset samples with silence : YesDelete leading and trailing silent blocks : NoNull samples used in CRC calculations : YesUsed interface : Native Win32 interface for Win NT & 2000Gap handling : Appended to previous track
Used output format : User Defined EncoderSelected bitrate : 1024 kBit/sQuality : HighAdd ID3 tag : NoCommand line compressor : C:\Program Files (x86)\Exact Audio Copy\Flac\flac.exeAdditional command line options : -8 -V -T "ARTIST=%artist%" -T "TITLE=%title%" -T "ALBUM=%albumtitle%" -T "DATE=%year%" -T "TRACKNUMBER=%tracknr%" -T "TOTALTRACKS=%numtracks%" -T "GENRE=%genre%" -T "ALBUMARTIST=%albumartist%" -T "ALBUM ARTIST=%albumartist%" -T "COMMENT=EAC Secure Mode, Test & Copy, AccurateRip, FLAC -8" %source%
TOC of the extracted CD
Track | Start | Length | Start sector | End sector --------------------------------------------------------- 1 | 0:00.32 | 4:00.50 | 32 | 18081 2 | 4:01.07 | 7:25.13 | 18082 | 51469 3 | 11:26.20 | 6:05.62 | 51470 | 78906 4 | 17:32.07 | 6:55.70 | 78907 | 110101 5 | 24:28.02 | 3:32.13 | 110102 | 126014 6 | 28:00.15 | 6:11.55 | 126015 | 153894 7 | 34:11.70 | 6:01.00 | 153895 | 180969 8 | 40:12.70 | 4:07.47 | 180970 | 199541 9 | 44:20.42 | 7:50.68 | 199542 | 234859 10 | 52:11.35 | 9:18.47 | 234860 | 276756 11 | 61:30.07 | 3:04.25 | 276757 | 290581 12 | 64:34.32 | 6:14.25 | 290582 | 318656 13 | 70:48.57 | 6:55.50 | 318657 | 349831
Track 1
Filename I:\EAC\Various Artists - Rave Hits Compilation Vol.2 (1996) [FLAC]\CD2\01 - DJ Hooligan - I Want You (Single Mix).wav
Pre-gap length 0:00:02.32
Peak level 99.0 % Extraction speed 1.2 X Track quality 99.9 % Test CRC 37F1E7A0 Copy CRC 37F1E7A0 Accurately ripped (confidence 2) [99988A28] (AR v2) Copy OK
Track 2
Filename I:\EAC\Various Artists - Rave Hits Compilation Vol.2 (1996) [FLAC]\CD2\02 - Merlyn & 6 Wicked Kids - Grooveliker (6 Wicked Kids Mix).wav
Pre-gap length 0:00:00.65
Peak level 99.0 % Extraction speed 1.6 X Track quality 100.0 % Test CRC AAD49CEA Copy CRC AAD49CEA Accurately ripped (confidence 2) [E960102A] (AR v2) Copy OK
Track 3
Filename I:\EAC\Various Artists - Rave Hits Compilation Vol.2 (1996) [FLAC]\CD2\03 - Green Velvet - Flash (Green Velvet Mix).wav
Pre-gap length 0:00:00.70
Peak level 94.6 % Extraction speed 1.6 X Track quality 99.9 % Test CRC 1366870C Copy CRC 1366870C Accurately ripped (confidence 2) [20D5F4DD] (AR v2) Copy OK
Track 4
Filename I:\EAC\Various Artists - Rave Hits Compilation Vol.2 (1996) [FLAC]\CD2\04 - Pizzaman - Happiness (Club Mix).wav
Pre-gap length 0:00:00.50
Peak level 100.0 % Extraction speed 1.9 X Track quality 100.0 % Test CRC 22DECB23 Copy CRC 22DECB23 Accurately ripped (confidence 2) [C5A0B31B] (AR v2) Copy OK
Track 5
Filename I:\EAC\Various Artists - Rave Hits Compilation Vol.2 (1996) [FLAC]\CD2\05 - Lords Of House - Got To Be House (Single Edit).wav
Pre-gap length 0:00:00.40
Peak level 99.0 % Extraction speed 1.7 X Track quality 99.9 % Test CRC 7A7B07AA Copy CRC 7A7B07AA Accurately ripped (confidence 2) [DE6CBFF6] (AR v2) Copy OK
Track 6
Filename I:\EAC\Various Artists - Rave Hits Compilation Vol.2 (1996) [FLAC]\CD2\06 - Starsky & Hutch - Gimme More.wav
Pre-gap length 0:00:01.00
Peak level 99.0 % Extraction speed 2.2 X Track quality 100.0 % Test CRC 2BB0D0A7 Copy CRC 2BB0D0A7 Accurately ripped (confidence 2) [1D45F4F3] (AR v2) Copy OK
Track 7
Filename I:\EAC\Various Artists - Rave Hits Compilation Vol.2 (1996) [FLAC]\CD2\07 - Mark NRG - There Is No Return.wav
Pre-gap length 0:00:00.63
Peak level 99.0 % Extraction speed 2.3 X Track quality 100.0 % Test CRC 4785D619 Copy CRC 4785D619 Accurately ripped (confidence 2) [0A2ED6F8] (AR v2) Copy OK
Track 8
Filename I:\EAC\Various Artists - Rave Hits Compilation Vol.2 (1996) [FLAC]\CD2\08 - DJ Steve L & Cyrus - Movin'.wav
Pre-gap length 0:00:00.50
Peak level 99.0 % Extraction speed 2.0 X Track quality 99.9 % Test CRC D49A05DF Copy CRC D49A05DF Accurately ripped (confidence 2) [BFD10BB7] (AR v2) Copy OK
Track 9
Filename I:\EAC\Various Artists - Rave Hits Compilation Vol.2 (1996) [FLAC]\CD2\09 - Marco Zaffarano - Pandora's Box.wav
Pre-gap length 0:00:01.35
Peak level 100.0 % Extraction speed 2.6 X Track quality 100.0 % Test CRC 5A3DB3BD Copy CRC 5A3DB3BD Accurately ripped (confidence 2) [C58F13BC] (AR v2) Copy OK
Track 10
Filename I:\EAC\Various Artists - Rave Hits Compilation Vol.2 (1996) [FLAC]\CD2\10 - X Connection - Watch Them Dogs (Vocal Mix).wav
Pre-gap length 0:00:00.58
Peak level 99.0 % Extraction speed 2.7 X Track quality 100.0 % Test CRC B249C1AF Copy CRC B249C1AF Accurately ripped (confidence 2) [48040172] (AR v2) Copy OK
Track 11
Filename I:\EAC\Various Artists - Rave Hits Compilation Vol.2 (1996) [FLAC]\CD2\11 - DJ Raoul - The Bitch (Elmi's Short Mix).wav
Pre-gap length 0:00:00.55
Peak level 99.0 % Extraction speed 2.6 X Track quality 100.0 % Test CRC A7AE05CD Copy CRC A7AE05CD Accurately ripped (confidence 2) [8D94BBDF] (AR v2) Copy OK
Track 12
Filename I:\EAC\Various Artists - Rave Hits Compilation Vol.2 (1996) [FLAC]\CD2\12 - DJ Dick - Sono In Coma (Force Mass Motion Remix).wav
Pre-gap length 0:00:01.07
Peak level 99.0 % Extraction speed 2.8 X Track quality 100.0 % Test CRC C3FCB4F3 Copy CRC C3FCB4F3 Accurately ripped (confidence 2) [4CE37040] (AR v2) Copy OK
Track 13
Filename I:\EAC\Various Artists - Rave Hits Compilation Vol.2 (1996) [FLAC]\CD2\13 - Laurent Garnier - Pigalle.wav
Pre-gap length 0:00:00.45
Peak level 99.0 % Extraction speed 2.6 X Track quality 99.9 % Test CRC 239A3B64 Copy CRC 239A3B64 Accurately ripped (confidence 2) [1F88E2D7] (AR v2) Copy OK
All tracks accurately ripped
No errors occurred
End of status report
---- CUETools DB Plugin V2.1.4
[CTDB TOCID: OBwcu8lJ1AH.BdwCJVtImhlIeW8-] foundSubmit result: OBwcu8lJ1AH.BdwCJVtImhlIeW8- has been confirmedTrack | CTDB Status 1 | (3/3) Accurately ripped 2 | (3/3) Accurately ripped 3 | (3/3) Accurately ripped 4 | (3/3) Accurately ripped 5 | (3/3) Accurately ripped 6 | (3/3) Accurately ripped 7 | (3/3) Accurately ripped 8 | (3/3) Accurately ripped 9 | (3/3) Accurately ripped 10 | (3/3) Accurately ripped 11 | (3/3) Accurately ripped 12 | (3/3) Accurately ripped 13 | (3/3) Accurately ripped
==== Log checksum 8E0C234562EE0C165FF6A226E422CDEF1EFEB2FE1A9825E410AD715C802EAB55 ====

cue CD 2

REM GENRE RaveREM DATE 1996REM DISCID AE12380DREM COMMENT "ExactAudioCopy v1.0b4"PERFORMER "Various Artists"TITLE "Rave Hits Compilation Vol.2"FILE "01 - DJ Hooligan - I Want You (Single Mix).wav" WAVE TRACK 01 AUDIO TITLE "I Want You (Single Mix)" PERFORMER "DJ Hooligan" PREGAP 00:00:32 INDEX 01 00:00:00 TRACK 02 AUDIO TITLE "Grooveliker (6 Wicked Kids Mix)" PERFORMER "Merlyn & 6 Wicked Kids" INDEX 00 03:59:60FILE "02 - Merlyn & 6 Wicked Kids - Grooveliker (6 Wicked Kids Mix).wav" WAVE INDEX 01 00:00:00 TRACK 03 AUDIO TITLE "Flash (Green Velvet Mix)" PERFORMER "Green Velvet" INDEX 00 07:24:18FILE "03 - Green Velvet - Flash (Green Velvet Mix).wav" WAVE INDEX 01 00:00:00 TRACK 04 AUDIO TITLE "Happiness (Club Mix)" PERFORMER "Pizzaman" INDEX 00 06:05:12FILE "04 - Pizzaman - Happiness (Club Mix).wav" WAVE INDEX 01 00:00:00 TRACK 05 AUDIO TITLE "Got To Be House (Single Edit)" PERFORMER "Lords Of House" INDEX 00 06:55:30FILE "05 - Lords Of House - Got To Be House (Single Edit).wav" WAVE INDEX 01 00:00:00 TRACK 06 AUDIO TITLE "Gimme More" PERFORMER "Starsky & Hutch" INDEX 00 03:31:13FILE "06 - Starsky & Hutch - Gimme More.wav" WAVE INDEX 01 00:00:00 TRACK 07 AUDIO TITLE "There Is No Return" PERFORMER "Mark NRG" INDEX 00 06:10:67FILE "07 - Mark NRG - There Is No Return.wav" WAVE INDEX 01 00:00:00 TRACK 08 AUDIO TITLE "Movin'" PERFORMER "DJ Steve L & Cyrus" INDEX 00 06:00:25FILE "08 - DJ Steve L & Cyrus - Movin'.wav" WAVE INDEX 01 00:00:00 TRACK 09 AUDIO TITLE "Pandora's Box" PERFORMER "Marco Zaffarano" INDEX 00 04:06:12FILE "09 - Marco Zaffarano - Pandora's Box.wav" WAVE INDEX 01 00:00:00 TRACK 10 AUDIO TITLE "Watch Them Dogs (Vocal Mix)" PERFORMER "X Connection" INDEX 00 07:50:10FILE "10 - X Connection - Watch Them Dogs (Vocal Mix).wav" WAVE INDEX 01 00:00:00 TRACK 11 AUDIO TITLE "The Bitch (Elmi's Short Mix)" PERFORMER "DJ Raoul" INDEX 00 09:17:67FILE "11 - DJ Raoul - The Bitch (Elmi's Short Mix).wav" WAVE INDEX 01 00:00:00 TRACK 12 AUDIO TITLE "Sono In Coma (Force Mass Motion Remix)" PERFORMER "DJ Dick" INDEX 00 03:03:18FILE "12 - DJ Dick - Sono In Coma (Force Mass Motion Remix).wav" WAVE INDEX 01 00:00:00 TRACK 13 AUDIO TITLE "Pigalle" PERFORMER "Laurent Garnier" INDEX 00 06:13:55FILE "13 - Laurent Garnier - Pigalle.wav" WAVE INDEX 01 00:00:00

_________________
Показать сообщения:    

Текущее время: Сегодня 17:35

Часовой пояс: GMT



Вы не можете начинать темы
Вы не можете отвечать на сообщения
Вы не можете редактировать свои сообщения
Вы не можете удалять свои сообщения
Вы не можете голосовать в опросах
Вы не можете прикреплять файлы к сообщениям
Вы не можете скачивать файлы