Важное объявление!
У Нас Все раздачи мультитрекерные, при нуле пиров в релизах, можете смело вставать на закачку!
 
Автор Сообщение

HUNTER

Стаж:
4 года 4 месяца
Сообщений:
56765

Репутация: 101

[+] [-]
Вне форума [Профиль] [ЛС]

Party Animals - Have You Ever Been Mellow?
Жанр: Hardcore, Happy hardcore, Gabber
Страна-производитель диска: Netherlands
Год издания: 1995
Издатель (лейбл): Mokum Records
Номер по каталогу: DB 1782 3
Страна: Netherlands
Аудиокодек: FLAC (*.flac)
Тип рипа: tracks+.cue
Битрейт аудио: lossless
Продолжительность: 21:26
Источник (релизер): Собственный рип
Наличие сканов в содержимом раздачи: да
Треклист:
01 - Have You Ever Been Mellow (Flamman & Abraxas Radio Mix)
02 - Used & Abused (Amnesia Mix)
03 - Have You Ever Been Mellow (Tekno Mafia Mix)
04 - E.H.B.O.
05 - Gabber Baby

Лог создания рипа

Exact Audio Copy V1.0 beta 3 from 29. August 2011
EAC extraction logfile from 14. May 2012, 19:15
Party Animals / Have You Ever Been Mellow?
Used drive : ATAPI iHAS124 B Adapter: 1 ID: 4
Read mode : SecureUtilize accurate stream : YesDefeat audio cache : YesMake use of C2 pointers : No
Read offset correction : 6Overread into Lead-In and Lead-Out : NoFill up missing offset samples with silence : YesDelete leading and trailing silent blocks : NoNull samples used in CRC calculations : YesUsed interface : Native Win32 interface for Win NT & 2000Gap handling : Appended to previous track
Used output format : User Defined EncoderSelected bitrate : 896 kBit/sQuality : HighAdd ID3 tag : NoCommand line compressor : C:\Program Files (x86)\FLAC\flac.exeAdditional command line options : -5 --delete-input-file -V -T Title="%title%" -T Artist="%artist%" -T Date="%year%" -T Tracknumber="%tracknr%" -T Album="%albumtitle%" %source%
TOC of the extracted CD
Track | Start | Length | Start sector | End sector --------------------------------------------------------- 1 | 0:00.32 | 3:07.68 | 32 | 14124 2 | 3:08.25 | 5:21.37 | 14125 | 38236 3 | 8:29.62 | 4:36.13 | 38237 | 58949 4 | 13:06.00 | 5:10.62 | 58950 | 82261 5 | 18:16.62 | 3:10.70 | 82262 | 96581
Track 1
Filename T:\Party Animals - Have You Ever Been Mellow (DB 1782 3) [1995]\01 - Have You Ever Been Mellow (Flamman & Abraxas Radio Mix).wav
Pre-gap length 0:00:02.32
Peak level 98.3 % Extraction speed 3.9 X Track quality 99.9 % Test CRC 7B477526 Copy CRC 7B477526 Accurately ripped (confidence 3) [ECDDFB86] (AR v1) Copy OK
Track 2
Filename T:\Party Animals - Have You Ever Been Mellow (DB 1782 3) [1995]\02 - Used & Abused (Amnesia Mix).wav
Pre-gap length 0:00:01.38
Peak level 98.3 % Extraction speed 5.9 X Track quality 100.0 % Test CRC 00D92727 Copy CRC 00D92727 Accurately ripped (confidence 3) [D7F6F427] (AR v1) Copy OK
Track 3
Filename T:\Party Animals - Have You Ever Been Mellow (DB 1782 3) [1995]\03 - Have You Ever Been Mellow (Tekno Mafia Mix).wav
Pre-gap length 0:00:01.07
Peak level 98.5 % Extraction speed 6.4 X Track quality 100.0 % Test CRC ECE58FD2 Copy CRC ECE58FD2 Accurately ripped (confidence 3) [02185085] (AR v1) Copy OK
Track 4
Filename T:\Party Animals - Have You Ever Been Mellow (DB 1782 3) [1995]\04 - E.H.B.O..wav
Pre-gap length 0:00:01.20
Peak level 69.3 % Extraction speed 7.1 X Track quality 100.0 % Test CRC D81D8222 Copy CRC D81D8222 Accurately ripped (confidence 3) [DB52BB62] (AR v1) Copy OK
Track 5
Filename T:\Party Animals - Have You Ever Been Mellow (DB 1782 3) [1995]\05 - Gabber Baby.wav
Pre-gap length 0:00:01.37
Peak level 98.3 % Extraction speed 5.7 X Track quality 99.9 % Test CRC 4D63120E Copy CRC 4D63120E Accurately ripped (confidence 3) [CBD26C9C] (AR v1) Copy OK
All tracks accurately ripped
No errors occurred
End of status report
==== Log checksum 216BD2B5B60C3BCFF86FF55E39D11BB112779AB4DBD17132092169EB160F644A ====

Содержание индексной карты (.CUE)

REM DATE 1995REM DISCID 3C050705REM COMMENT "ExactAudioCopy v1.0b3"PERFORMER "Party Animals"TITLE "Have You Ever Been Mellow?"FILE "01 - Have You Ever Been Mellow (Flamman & Abraxas Radio Mix).wav" WAVE TRACK 01 AUDIO TITLE "Have You Ever Been Mellow? (Flamman & Abraxas Radio Mix)" PERFORMER "Party Animals" PREGAP 00:00:32 INDEX 01 00:00:00 TRACK 02 AUDIO TITLE "Used & Abused (Amnesia Mix)" PERFORMER "Party Animals" INDEX 00 03:06:30FILE "02 - Used & Abused (Amnesia Mix).wav" WAVE INDEX 01 00:00:00 TRACK 03 AUDIO TITLE "Have You Ever Been Mellow? (Tekno Mafia Mix)" PERFORMER "Party Animals" INDEX 00 05:20:30FILE "03 - Have You Ever Been Mellow (Tekno Mafia Mix).wav" WAVE INDEX 01 00:00:00 TRACK 04 AUDIO TITLE "E.H.B.O." PERFORMER "Party Animals" INDEX 00 04:34:68FILE "04 - E.H.B.O..wav" WAVE INDEX 01 00:00:00 TRACK 05 AUDIO TITLE "Gabber Baby" PERFORMER "Party Animals" INDEX 00 05:09:25FILE "05 - Gabber Baby.wav" WAVE INDEX 01 00:00:00

Лог проверки качества

-----------------------
DON'T MODIFY THIS FILE
-----------------------
PERFORMER: auCDtect Task Manager, ver. 1.5.1RC6 build 1.5.1.7Copyright (c) 2008-2010 y-soft. All rights reservedhttp://y-soft.org
ANALYZER: auCDtect: CD records authenticity detector, version 0.8.2Copyright (c) 2004 Oleg Berngardt. All rights reserved.Copyright (c) 2004 Alexander Djourik. All rights reserved.
FILE: 05 - Gabber Baby.flac Size: 21190558 Hash: 63DD234F7E0CE324375167FA4645F6DE Accuracy: -m0 Conclusion: CDDA 100% Signature: 751D6D11981B530E410B72BB549D9F9416EA2C57FILE: 04 - E.H.B.O..flac Size: 37299091 Hash: 5CF73F1A43C6E3400A9DCFB11BC3CD79 Accuracy: -m0 Conclusion: CDDA 100% Signature: BA2BB34A36CD6901ADEC7BBEE81988E65A76DD70FILE: 03 - Have You Ever Been Mellow (Tekno Mafia Mix).flac Size: 33888052 Hash: C21FDD3978975D30E5315384963C672A Accuracy: -m0 Conclusion: CDDA 100% Signature: FBB52D12D805F6BF8BCEBE9BBB6DF075BD6EAD48FILE: 02 - Used & Abused (Amnesia Mix).flac Size: 39118513 Hash: A22A22D6477DF792BB75717D7E320383 Accuracy: -m0 Conclusion: CDDA 100% Signature: C855E21DDECF8AC8FDFDC5DC7421831AED8F4339FILE: 01 - Have You Ever Been Mellow (Flamman & Abraxas Radio Mix).flac Size: 23142372 Hash: 4BCD97CF9E01BF9122007FB162AF4922 Accuracy: -m0 Conclusion: CDDA 100% Signature: 3446B19DE1E315004FCCA44F58FD2CC085B95D63

Скриншот спектра частот


_________________
Показать сообщения:    

Текущее время: Сегодня 01:05

Часовой пояс: GMT



Вы не можете начинать темы
Вы не можете отвечать на сообщения
Вы не можете редактировать свои сообщения
Вы не можете удалять свои сообщения
Вы не можете голосовать в опросах
Вы не можете прикреплять файлы к сообщениям
Вы не можете скачивать файлы