Важное объявление!
У Нас Все раздачи мультитрекерные, при нуле пиров в релизах, можете смело вставать на закачку!
Статистика раздачи
Размер:     |    Зарегистрирован:     |    Скачан:     |   
Нет
 
     
 
 
Автор Сообщение

HUNTER

Стаж:
5 лет 1 месяц
Сообщений:
68439

Репутация: 101

[+] [-]
Вне форума [Профиль] [ЛС]

DJ Weirdo & DJ Sim - Pump That Stupid Bass
Жанр: Hardcore, Happy Hardcore
Страна-производитель диска: Netherlands
Год издания: 1995
Издатель (лейбл): Pengo Records
Номер по каталогу: PENGO 008
Страна: Netherlands
Аудиокодек: FLAC (*.flac)
Тип рипа: tracks+.cue
Битрейт аудио: lossless
Продолжительность: 18:55
Источник (релизер): Собственный рип
Наличие сканов в содержимом раздачи: да
Треклист:
01 - Pump That Stupid Bass (Credibility Radio Mix)
02 - Pump That Stupid Bass (Hardcore Mix)
03 - Pump That Stupid Bass (DJ Friendly Mix)
04 - Pump That Stupid Bass (Happy Rave Mix)

Лог создания рипа

Exact Audio Copy V1.0 beta 3 from 29. August 2011
EAC extraction logfile from 14. May 2012, 18:03
DJ Weirdo & DJ Sim / Pump That Stupid Bass
Used drive : ATAPI iHAS124 B Adapter: 1 ID: 4
Read mode : SecureUtilize accurate stream : YesDefeat audio cache : YesMake use of C2 pointers : No
Read offset correction : 6Overread into Lead-In and Lead-Out : NoFill up missing offset samples with silence : YesDelete leading and trailing silent blocks : NoNull samples used in CRC calculations : YesUsed interface : Native Win32 interface for Win NT & 2000Gap handling : Appended to previous track
Used output format : User Defined EncoderSelected bitrate : 896 kBit/sQuality : HighAdd ID3 tag : NoCommand line compressor : C:\Program Files (x86)\FLAC\flac.exeAdditional command line options : -5 --delete-input-file -V -T Title="%title%" -T Artist="%artist%" -T Date="%year%" -T Tracknumber="%tracknr%" -T Album="%albumtitle%" %source%
TOC of the extracted CD
Track | Start | Length | Start sector | End sector --------------------------------------------------------- 1 | 0:00.33 | 3:59.52 | 33 | 18009 2 | 4:00.10 | 4:35.38 | 18010 | 38672 3 | 8:35.48 | 5:57.65 | 38673 | 65512 4 | 14:33.38 | 4:22.70 | 65513 | 85232
Track 1
Filename T:\DJ Weirdo & DJ Sim - Pump That Stupid Bass (PENGO008) [1995]\01 - Pump That Stupid Bass (Credibility Radio Mix).wav
Pre-gap length 0:00:02.33
Peak level 98.2 % Extraction speed 4.3 X Track quality 99.9 % Test CRC 36A8DDD1 Copy CRC 36A8DDD1 Track not present in AccurateRip database Copy OK
Track 2
Filename T:\DJ Weirdo & DJ Sim - Pump That Stupid Bass (PENGO008) [1995]\02 - Pump That Stupid Bass (Hardcore Mix).wav
Pre-gap length 0:00:01.27
Peak level 98.4 % Extraction speed 5.9 X Track quality 100.0 % Test CRC B8383F9A Copy CRC B8383F9A Track not present in AccurateRip database Copy OK
Track 3
Filename T:\DJ Weirdo & DJ Sim - Pump That Stupid Bass (PENGO008) [1995]\03 - Pump That Stupid Bass (DJ Friendly Mix).wav
Pre-gap length 0:00:01.50
Peak level 98.5 % Extraction speed 5.9 X Track quality 99.9 % Test CRC A14F39EB Copy CRC A14F39EB Track not present in AccurateRip database Copy OK
Track 4
Filename T:\DJ Weirdo & DJ Sim - Pump That Stupid Bass (PENGO008) [1995]\04 - Pump That Stupid Bass (Happy Rave Mix).wav
Pre-gap length 0:00:01.05
Peak level 98.5 % Extraction speed 6.0 X Track quality 99.9 % Test CRC 4D8B7059 Copy CRC 4D8B7059 Track not present in AccurateRip database Copy OK
None of the tracks are present in the AccurateRip database
No errors occurred
End of status report
==== Log checksum 782A0055B97F216E80D3D831E20887E066A21A61A61B26CDFC849FF73BCD8076 ====

Содержание индексной карты (.CUE)

REM GENRE HardcoreREM DATE 1995REM DISCID 2B047004REM COMMENT "ExactAudioCopy v1.0b3"PERFORMER "DJ Weirdo & DJ Sim"TITLE "Pump That Stupid Bass"FILE "01 - Pump That Stupid Bass (Credibility Radio Mix).wav" WAVE TRACK 01 AUDIO TITLE "Pump That Stupid Bass (Credibility Radio Mix)" PERFORMER "DJ Weirdo & DJ Sim" PREGAP 00:00:33 INDEX 01 00:00:00 TRACK 02 AUDIO TITLE "Pump That Stupid Bass (Hardcore Mix)" PERFORMER "DJ Weirdo & DJ Sim" INDEX 00 03:58:25FILE "02 - Pump That Stupid Bass (Hardcore Mix).wav" WAVE INDEX 01 00:00:00 TRACK 03 AUDIO TITLE "Pump That Stupid Bass (DJ Friendly Mix)" PERFORMER "DJ Weirdo & DJ Sim" INDEX 00 04:33:63FILE "03 - Pump That Stupid Bass (DJ Friendly Mix).wav" WAVE INDEX 01 00:00:00 TRACK 04 AUDIO TITLE "Pump That Stupid Bass (Happy Rave Mix)" PERFORMER "DJ Weirdo & DJ Sim" INDEX 00 05:56:60FILE "04 - Pump That Stupid Bass (Happy Rave Mix).wav" WAVE INDEX 01 00:00:00

Лог проверки качества

-----------------------
DON'T MODIFY THIS FILE
-----------------------
PERFORMER: auCDtect Task Manager, ver. 1.5.1RC6 build 1.5.1.7Copyright (c) 2008-2010 y-soft. All rights reservedhttp://y-soft.org
ANALYZER: auCDtect: CD records authenticity detector, version 0.8.2Copyright (c) 2004 Oleg Berngardt. All rights reserved.Copyright (c) 2004 Alexander Djourik. All rights reserved.
FILE: 04 - Pump That Stupid Bass (Happy Rave Mix).flac Size: 29397532 Hash: AD94BA8D9B26EC6382C0DA6D677A7B55 Accuracy: -m0 Conclusion: CDDA 100% Signature: 93561DC40390DFC2A0A33C0514CAD8E4F207073BFILE: 03 - Pump That Stupid Bass (DJ Friendly Mix).flac Size: 40266131 Hash: 66D101731DDF8871322C0727EE3E6319 Accuracy: -m0 Conclusion: CDDA 100% Signature: 55EF971DBDEA5059BB0DF347606908B51DF0EC7CFILE: 02 - Pump That Stupid Bass (Hardcore Mix).flac Size: 31410563 Hash: 05BD3E0E582BA0B41620653DF2973D9E Accuracy: -m0 Conclusion: CDDA 100% Signature: 2246C84E576808D9EBEC7BF6A65CA24F7E695291FILE: 01 - Pump That Stupid Bass (Credibility Radio Mix).flac Size: 31211685 Hash: 04AACF8176B1D1AD8C80584820F21F29 Accuracy: -m0 Conclusion: CDDA 100% Signature: D3E6EF64517FAE5F66323B9793C2FD5A8B873DC4

Скриншот спектра частот


_________________
Показать сообщения:    

Текущее время: Сегодня 04:16

Часовой пояс: GMT



Вы не можете начинать темы
Вы не можете отвечать на сообщения
Вы не можете редактировать свои сообщения
Вы не можете удалять свои сообщения
Вы не можете голосовать в опросах
Вы не можете прикреплять файлы к сообщениям
Вы не можете скачивать файлы