Важное объявление!
У Нас Все раздачи мультитрекерные, при нуле пиров в релизах, можете смело вставать на закачку!
 
Автор Сообщение

HUNTER

Стаж:
4 года 8 месяцев
Сообщений:
62068

Репутация: 101

[+] [-]
Вне форума [Профиль] [ЛС]

Critical Mass - Believe In The Future
Жанр: Hardcore, Happy Hardcore
Страна-производитель диска: Netherlands
Год издания: 1996
Издатель (лейбл): Pengo Records
Номер по каталогу: PENGO 015 CDM
Страна: Netherlands
Аудиокодек: FLAC (*.flac)
Тип рипа: tracks+.cue
Битрейт аудио: lossless
Продолжительность: 23:33
Источник (релизер): Собственный рип
Наличие сканов в содержимом раздачи: да
Треклист:
01 - Believe In The Future (Radio Edit)
02 - Believe In The Future (Extended Version)
03 - Believe In The Future (Happy Future Edit)
04 - Believe In The Future (Critical Loudness Edit)
05 - Believe In The Future (DJ Weirdo & DJ Sim Future Remix)

Лог создания рипа

Exact Audio Copy V1.0 beta 3 from 29. August 2011
EAC extraction logfile from 14. May 2012, 18:43
Critical Mass / Believe In The Future
Used drive : ATAPI iHAS124 B Adapter: 1 ID: 4
Read mode : SecureUtilize accurate stream : YesDefeat audio cache : YesMake use of C2 pointers : No
Read offset correction : 6Overread into Lead-In and Lead-Out : NoFill up missing offset samples with silence : YesDelete leading and trailing silent blocks : NoNull samples used in CRC calculations : YesUsed interface : Native Win32 interface for Win NT & 2000Gap handling : Appended to previous track
Used output format : User Defined EncoderSelected bitrate : 896 kBit/sQuality : HighAdd ID3 tag : NoCommand line compressor : C:\Program Files (x86)\FLAC\flac.exeAdditional command line options : -5 --delete-input-file -V -T Title="%title%" -T Artist="%artist%" -T Date="%year%" -T Tracknumber="%tracknr%" -T Album="%albumtitle%" %source%
TOC of the extracted CD
Track | Start | Length | Start sector | End sector --------------------------------------------------------- 1 | 0:00.38 | 3:44.10 | 38 | 16847 2 | 3:44.48 | 4:41.12 | 16848 | 37934 3 | 8:25.60 | 4:18.53 | 37935 | 57337 4 | 12:44.38 | 4:49.12 | 57338 | 79024 5 | 17:33.50 | 6:00.68 | 79025 | 106092
Track 1
Filename T:\Critical Mass - Believe In The Future (PENGO015CDM) [1996]\01 - Believe In The Future (Radio Edit).wav
Pre-gap length 0:00:02.38
Peak level 98.0 % Extraction speed 5.1 X Track quality 100.0 % Test CRC 1F144BC7 Copy CRC 1F144BC7 Accurately ripped (confidence 4) [7E58A6B2] (AR v1) Copy OK
Track 2
Filename T:\Critical Mass - Believe In The Future (PENGO015CDM) [1996]\02 - Believe In The Future (Extended Version).wav
Pre-gap length 0:00:02.40
Peak level 98.0 % Extraction speed 5.0 X Track quality 99.9 % Test CRC 2B769A95 Copy CRC 2B769A95 Accurately ripped (confidence 5) [B0AFDD0C] (AR v1) Copy OK
Track 3
Filename T:\Critical Mass - Believe In The Future (PENGO015CDM) [1996]\03 - Believe In The Future (Happy Future Edit).wav
Pre-gap length 0:00:03.00
Peak level 98.0 % Extraction speed 6.4 X Track quality 100.0 % Test CRC C7EBE5E4 Copy CRC C7EBE5E4 Accurately ripped (confidence 4) [73EBF9C4] (AR v1) Copy OK
Track 4
Filename T:\Critical Mass - Believe In The Future (PENGO015CDM) [1996]\04 - Believe In The Future (Critical Loudness Edit).wav
Pre-gap length 0:00:02.38
Peak level 98.0 % Extraction speed 6.0 X Track quality 99.9 % Test CRC 080C5707 Copy CRC 080C5707 Accurately ripped (confidence 5) [A6C1DBF6] (AR v1) Copy OK
Track 5
Filename T:\Critical Mass - Believe In The Future (PENGO015CDM) [1996]\05 - Believe In The Future (DJ Weirdo & DJ Sim Future Remix).wav
Pre-gap length 0:00:02.45
Peak level 89.6 % Extraction speed 6.8 X Track quality 99.9 % Test CRC 670EE97E Copy CRC 670EE97E Accurately ripped (confidence 5) [386DFD87] (AR v1) Copy OK
All tracks accurately ripped
No errors occurred
End of status report
==== Log checksum EE4AA9B16BF573E3910880A052F3D7705A97F1B0E03E87231455A36F97188959 ====

Содержание индексной карты (.CUE)

REM GENRE HardcoreREM DATE 1996REM DISCID 36058605REM COMMENT "ExactAudioCopy v1.0b3"PERFORMER "Critical Mass"TITLE "Believe In The Future"FILE "01 - Believe In The Future (Radio Edit).wav" WAVE TRACK 01 AUDIO TITLE "Believe In The Future (Radio Edit)" PERFORMER "Critical Mass" PREGAP 00:00:38 INDEX 01 00:00:00 TRACK 02 AUDIO TITLE "Believe In The Future (Extended Version)" PERFORMER "Critical Mass" INDEX 00 03:41:45FILE "02 - Believe In The Future (Extended Version).wav" WAVE INDEX 01 00:00:00 TRACK 03 AUDIO TITLE "Believe In The Future (Happy Future Edit)" PERFORMER "Critical Mass" INDEX 00 04:38:12FILE "03 - Believe In The Future (Happy Future Edit).wav" WAVE INDEX 01 00:00:00 TRACK 04 AUDIO TITLE "Believe In The Future (Critical Loudness Edit)" PERFORMER "Critical Mass" INDEX 00 04:16:15FILE "04 - Believe In The Future (Critical Loudness Edit).wav" WAVE INDEX 01 00:00:00 TRACK 05 AUDIO TITLE "Believe In The Future (DJ Weirdo & DJ Sim Future Remix)" PERFORMER "Critical Mass" INDEX 00 04:46:42FILE "05 - Believe In The Future (DJ Weirdo & DJ Sim Future Remix).wav" WAVE INDEX 01 00:00:00

Лог проверки качества

-----------------------
DON'T MODIFY THIS FILE
-----------------------
PERFORMER: auCDtect Task Manager, ver. 1.5.1RC6 build 1.5.1.7Copyright (c) 2008-2010 y-soft. All rights reservedhttp://y-soft.org
ANALYZER: auCDtect: CD records authenticity detector, version 0.8.2Copyright (c) 2004 Oleg Berngardt. All rights reserved.Copyright (c) 2004 Alexander Djourik. All rights reserved.
FILE: 05 - Believe In The Future (DJ Weirdo & DJ Sim Future Remix).flac Size: 39241774 Hash: 5C953600E60BE5D2F1B694B6E04E7BC1 Accuracy: -m0 Conclusion: CDDA 100% Signature: 8436FC739382650D99D7C979548C3B8260FC76BAFILE: 04 - Believe In The Future (Critical Loudness Edit).flac Size: 35590380 Hash: 30167E4551E835DC4CB35520C25CE08B Accuracy: -m0 Conclusion: CDDA 100% Signature: A123E76B4085C82F846EC95ECCD275BE60B2DCD9FILE: 03 - Believe In The Future (Happy Future Edit).flac Size: 31346870 Hash: D8E6AF97A8597B08AFD3945F6C2585AE Accuracy: -m0 Conclusion: CDDA 100% Signature: D92DE322DE2EA5ECFC70A06C2A1BED98FE379163FILE: 02 - Believe In The Future (Extended Version).flac Size: 34473237 Hash: 0017E92224C0293217C26E7131A3B07A Accuracy: -m0 Conclusion: CDDA 100% Signature: 9CF22CC692997815E714A4CB2A7D2846F9931900FILE: 01 - Believe In The Future (Radio Edit).flac Size: 27750116 Hash: 30D9F3B5D0CF5730B864D63DF380FD31 Accuracy: -m0 Conclusion: CDDA 100% Signature: 48E7026BCA6C41568A9FC4D9614C2AA272A4FA68

Скриншот спектра частот


_________________
Показать сообщения:    

Текущее время: Сегодня 09:10

Часовой пояс: GMT



Вы не можете начинать темы
Вы не можете отвечать на сообщения
Вы не можете редактировать свои сообщения
Вы не можете удалять свои сообщения
Вы не можете голосовать в опросах
Вы не можете прикреплять файлы к сообщениям
Вы не можете скачивать файлы
Наши партнеры: интернет магазин Ивановского трикотажа textilla.ru