Ивановский Торрент трекер
Яндекс.Погода
 

[Цитировать]
HUNTER

Terrordrome - CD CollectionЖанр: Hardcore, Gabber, Speedcore
Страна-производитель диска: Germany
Год издания: 1994 - 1997
Издатель (лейбл): Control
Аудиокодек: FLAC (*.flac)
Тип рипа: image+.cue
Битрейт аудио: lossless
Источник (релизер): Диски из личной коллекции
Наличие сканов в содержимом раздачи: да 600 dpi (*.jpg)

VA - Terrordrome - The Hardcore Nightmare - 1994, [3xCD], (Control - [CON 4076-2]) /2:42:30/

Треклист:
CD1: (1:12:44)
01. Original Gabber, The – Headbanger (5:04)
02. Lenny Dee & Ralphie Dee – I Control Your Body (4:49)
03. Reanimator – Bigger And Bolder (4:55)
04. Haardcore – Everybody In The House (5:23)
05. Salami Brothers, The – Wet Salami (Mini Salami Mix) (4:33)
06. Strontium 9000 – Dynamic Fall-Out (4:23)
07. Ilsa Gold – Silke (Speedfreak Mix) (4:59)
08. High Energy – Hellgate (5:43)
09. Scarface – Speedy Gonzales (4:14)
10. Tellurian – Mokum (4:18)
11. Chosen Few - Gabberdam (4:46)
12. D&F – Tonight You Sleep In Hell (4:36)
13. Cookiemunsta – Cook & Curry (Gangarden Mix) (4:23)
14. Vitamin – Cosmic Trash (4:30)
15. High Energy – Suck My Dick (5:56)

CD2: (1:11:28)

01. Holy Noise – Hardcore Will Never Die (Rotterdam Mix) (5:54)
02. Tellurian – Petition The Lord (3:43)
03. Speedfreak – Red Poison (4:27)
04. High Energy – Looney Tunes (5:00)
05. Liquid Bass – Acid Raiser (5:49)
06. Hammerhead – Hardcore Will Never Die (4:38)
07. Hooihouse – I Am Da Creator (4:13)
08. Technohead – The Passion (5:05)
09. Original Gabber, The – AD-DA (4:54)
10. Lenny Dee & Ralphie Dee – Brain Confusion (5:03)
11. Haardcore – Ore Slope (6:30)
12. Chosen Few – Freedom (4:32)
13. Vitamin – The Point (3:49)
14. Hooihouse – Hak Hak (3:40)
15. Strontium 9000 – Death Row (3:49)

CD3: The Terrordrome Megamix (0:18:18)

01A. Original Gabber, The – Headbanger
01B. Lenny Dee & Ralphie Dee – Brain Confusion
01C. Lenny Dee & Ralphie Dee – I Control Your Body
01D. Original Gabber, The – AD-DA
01E. Tellurian – Mokum
01F. Haardcore – Everybody In The House
01G. Cookiemunsta – Cook & Curry (Gangarden Mix)
01H. Vitamin – Cosmic Trash

-

Лог создания рипа CD1

Exact Audio Copy V1.0 beta 3 from 29. August 2011
Отчёт EAC об извлечении, выполненном 6. февраля 2014, 18:43
Various / Terrordrome I - The Hardcore Nightmare (CD1)
Дисковод: Optiarc DVD RW AD-7261S Adapter: 1 ID: 1
Режим чтения : ДостоверностьИспользование точного потока : ДаОтключение кэша аудио : ДаИспользование указателей C2 : Нет
Коррекция смещения при чтении : 48Способность читать области Lead-in и Lead-out : НетЗаполнение пропущенных сэмплов тишиной : ДаУдаление блоков с тишиной в начале и конце : НетПри вычислениях CRC использовались нулевые сэмплы : ДаИнтерфейс : Встроенный Win32-интерфейс для Win NT/2000
Выходной формат : Внутренние WAV-операцииФормат сэмплов : 44.100 Гц; 16 бит; стерео
TOC извлечённого CD
Трек | Старт | Длительность | Начальный сектор | Конечный сектор --------------------------------------------------------------------- 1 | 0:00.00 | 5:05.35 | 0 | 22909 2 | 5:05.35 | 4:50.10 | 22910 | 44669 3 | 9:55.45 | 4:55.40 | 44670 | 66834 4 | 14:51.10 | 5:24.30 | 66835 | 91164 5 | 20:15.40 | 4:34.08 | 91165 | 111722 6 | 24:49.48 | 4:23.40 | 111723 | 131487 7 | 29:13.13 | 5:00.02 | 131488 | 153989 8 | 34:13.15 | 5:43.30 | 153990 | 179744 9 | 39:56.45 | 4:14.68 | 179745 | 198862 10 | 44:11.38 | 4:19.07 | 198863 | 218294 11 | 48:30.45 | 4:47.65 | 218295 | 239884 12 | 53:18.35 | 4:37.28 | 239885 | 260687 13 | 57:55.63 | 4:23.37 | 260688 | 280449 14 | 62:19.25 | 4:29.05 | 280450 | 300629 15 | 66:48.30 | 5:56.03 | 300630 | 327332
Характеристики диапазона извлечения и сообщения об ошибках
Выбранный диапазон
Имя файла C:\Users\Meijin\Desktop\Новая папка (4)\Various - Terrordrome I - The Hardcore Nightmare (CD1).wav
Пиковый уровень 100.0 % Скорость извлечения 4.5 X Качество диапазона 99.9 % CRC теста 01F7D98C CRC копии 01F7D98C Копирование... OK
Ошибок не произошло
AccurateRip: сводка
Трек 1 : извлечено точно (доверие 6) [70AC7A1B] (AR v2)Трек 2 : извлечено точно (доверие 5) [D0A745C6] (AR v2)Трек 3 : извлечено точно (доверие 5) [18A4CA6A] (AR v2)Трек 4 : извлечено точно (доверие 6) [E1D5B6C6] (AR v2)Трек 5 : извлечено точно (доверие 6) [38114B1E] (AR v2)Трек 6 : извлечено точно (доверие 5) [9FFD5DBD] (AR v2)Трек 7 : извлечено точно (доверие 6) [DB4AA5D1] (AR v2)Трек 8 : извлечено точно (доверие 5) [9DF3BBA8] (AR v2)Трек 9 : извлечено точно (доверие 5) [B29C405C] (AR v2)Трек 10 : извлечено точно (доверие 5) [4DB68082] (AR v2)Трек 11 : извлечено точно (доверие 6) [0F47B6F7] (AR v2)Трек 12 : извлечено точно (доверие 5) [57EDA0F9] (AR v2)Трек 13 : извлечено точно (доверие 6) [AEF8725F] (AR v2)Трек 14 : извлечено точно (доверие 6) [5AFC310E] (AR v2)Трек 15 : извлечено точно (доверие 5) [32922A99] (AR v2)
Все треки извлечены точно
Конец отчёта
==== Контрольная сумма отчёта 0423C6DB515633B27A90FEEF6DEAF1FDDBC832BBA3D97CC283184A63FAA5120F ====

Лог создания рипа CD2

Exact Audio Copy V1.0 beta 3 from 29. August 2011
Отчёт EAC об извлечении, выполненном 6. февраля 2014, 22:00
Various / Terrordrome I - The Hardcore Nightmare (CD2)
Дисковод: Optiarc DVD RW AD-7261S Adapter: 1 ID: 1
Режим чтения : ДостоверностьИспользование точного потока : ДаОтключение кэша аудио : ДаИспользование указателей C2 : Нет
Коррекция смещения при чтении : 48Способность читать области Lead-in и Lead-out : НетЗаполнение пропущенных сэмплов тишиной : ДаУдаление блоков с тишиной в начале и конце : НетПри вычислениях CRC использовались нулевые сэмплы : ДаИнтерфейс : Встроенный Win32-интерфейс для Win NT/2000
Выходной формат : Внутренние WAV-операцииФормат сэмплов : 44.100 Гц; 16 бит; стерео
TOC извлечённого CD
Трек | Старт | Длительность | Начальный сектор | Конечный сектор --------------------------------------------------------------------- 1 | 0:00.00 | 5:55.03 | 0 | 26627 2 | 5:55.03 | 3:44.22 | 26628 | 43449 3 | 9:39.25 | 4:28.25 | 43450 | 63574 4 | 14:07.50 | 5:00.63 | 63575 | 86137 5 | 19:08.38 | 5:50.57 | 86138 | 112444 6 | 24:59.20 | 4:38.68 | 112445 | 133362 7 | 29:38.13 | 4:15.22 | 133363 | 152509 8 | 33:53.35 | 5:06.10 | 152510 | 175469 9 | 38:59.45 | 4:55.65 | 175470 | 197659 10 | 43:55.35 | 5:03.05 | 197660 | 220389 11 | 48:58.40 | 6:32.43 | 220390 | 249832 12 | 55:31.08 | 4:35.17 | 249833 | 270474 13 | 60:06.25 | 3:50.45 | 270475 | 287769 14 | 63:56.70 | 3:42.30 | 287770 | 304449 15 | 67:39.25 | 3:48.30 | 304450 | 321579
Характеристики диапазона извлечения и сообщения об ошибках
Выбранный диапазон
Имя файла C:\Users\Meijin\Desktop\Новая папка (4)\Various - Terrordrome I - The Hardcore Nightmare (CD2).wav
Пиковый уровень 100.0 % Скорость извлечения 4.4 X Качество диапазона 100.0 % CRC теста E819F194 CRC копии E819F194 Копирование... OK
Ошибок не произошло
AccurateRip: сводка
Трек 1 : извлечено точно (доверие 5) [74642224] (AR v2)Трек 2 : извлечено точно (доверие 6) [956DBEDB] (AR v2)Трек 3 : извлечено точно (доверие 6) [56EF7ABE] (AR v2)Трек 4 : извлечено точно (доверие 6) [310AA1AE] (AR v2)Трек 5 : извлечено точно (доверие 6) [52A54BCC] (AR v2)Трек 6 : извлечено точно (доверие 6) [D45C56E2] (AR v2)Трек 7 : извлечено точно (доверие 6) [1312CE00] (AR v2)Трек 8 : извлечено точно (доверие 6) [C42479D1] (AR v2)Трек 9 : извлечено точно (доверие 6) [F5C72740] (AR v2)Трек 10 : извлечено точно (доверие 6) [C55C9BC9] (AR v2)Трек 11 : извлечено точно (доверие 6) [0A787029] (AR v2)Трек 12 : извлечено точно (доверие 6) [FD977F07] (AR v2)Трек 13 : извлечено точно (доверие 6) [FA9F0858] (AR v2)Трек 14 : извлечено точно (доверие 6) [6D23891B] (AR v2)Трек 15 : извлечено точно (доверие 6) [C2EAECFF] (AR v2)
Все треки извлечены точно
Конец отчёта
==== Контрольная сумма отчёта 77D39ED869238885CE2D676677E99B396B5BEC2EABDC117C2C2A4DA4FA414590 ====

Лог создания рипа CD3

Exact Audio Copy V1.0 beta 3 from 29. August 2011
Отчёт EAC об извлечении, выполненном 6. февраля 2014, 22:27
Various / Terrordrome I - The Hardcore Nightmare (CD3)
Дисковод: Optiarc DVD RW AD-7261S Adapter: 1 ID: 1
Режим чтения : ДостоверностьИспользование точного потока : ДаОтключение кэша аудио : ДаИспользование указателей C2 : Нет
Коррекция смещения при чтении : 48Способность читать области Lead-in и Lead-out : НетЗаполнение пропущенных сэмплов тишиной : ДаУдаление блоков с тишиной в начале и конце : НетПри вычислениях CRC использовались нулевые сэмплы : ДаИнтерфейс : Встроенный Win32-интерфейс для Win NT/2000
Выходной формат : Внутренние WAV-операцииФормат сэмплов : 44.100 Гц; 16 бит; стерео
TOC извлечённого CD
Трек | Старт | Длительность | Начальный сектор | Конечный сектор --------------------------------------------------------------------- 1 | 0:00.00 | 18:17.50 | 0 | 82324
Характеристики диапазона извлечения и сообщения об ошибках
Выбранный диапазон
Имя файла C:\Users\Meijin\Desktop\Новая папка (4)\Various - Terrordrome I - The Hardcore Nightmare (CD3).wav
Пиковый уровень 88.5 % Скорость извлечения 3.3 X Качество диапазона 100.0 % CRC теста 94F055D3 CRC копии 94F055D3 Копирование... OK
Ошибок не произошло
AccurateRip: сводка
Трек 1 : извлечено точно (доверие 6) [1079BFA5] (AR v2)
Все треки извлечены точно
Конец отчёта
==== Контрольная сумма отчёта F284A1E62E5266DF6F85802FB8C3F7AFDE859246CFF0B77D1BF234E0F11890A2 ====

VA - Terrordrome II - The Hardcore Cyberpunk 21st Century Gabba Trance - 1994, [3xCD], (Control - [0040842CON]) /2:39:13/

Треклист:
CD1: (1:06:40)
01. Chosen Few - Introdrome (1:21)
02. DJ Fistfuck – Tyrannofuck (4:42)
03. Cyanide – String X (5:33)
04. Annihilator – I'll Show You My Gun (3:31)
05. Shadowrun – Base U (Smash TV) (5:23)
06. Technohead – Accelerator #4 (4:01)
07. Wedlock – One Day (3:45)
08. Chosen Few – Maniac (3:53)
09. Tellurian – Cocksuckers (4:28)
10. Vinyl Killer – F.T.S. (4:01)
11. Maniac Of Noize – Domestic Moves (3:43)
12. Analyzer – Victim Of Trance (3:51)
13. A Blunted Vision – Cause A Riot (Liza N Dano Remix) (4:42)
14. Lenny Dee & Ralphie Dee – Power Dominion (3:55)
15. High Energy – 20.000 Volt (4:55)
16. Oral Maniac – Suck It (4:21)

CD2: (1:07:07)

01. High Energy – Terrordrome (1:25)
02. Re-Animator – Fuck This (5:37)
03. Technohead – Accelerator #3 (4:03)
04. T.O.S.T.I. – Total Blindness (3:58)
05. Cyanide – Relatic (6:03)
06. Maniac Of Noize – Mokummania (4:24)
07. Noisegate – Goddamn Mind (4:18)
08. Sons Of Aliens – Invasion Of The Intruders (6:25)
09. Vitamin – In 16 Beats Time Second (6:22)
10. Original Gabber – CTX (Mirror Mix) (4:00)
11. Salami Brothers – Eat Zat Pizza (Veggie Mix) (3:43)
12. Strontium 9000 – Insane (3:50)
13. Milan – Psychic 909 (4:59)
14. Triplet – Move It Faster (4:20)
15. Haardcore – Quetsch (4:55)
16. Original Gabber – Outrodrome (1:53)

CD3: Terrordrome Megaterror Cybermix (0:25:26)

01A. Lenny Dee & Ralphie Dee – I Control Your Body (2:07)
01B. Chosen Few – Maniac (1:26)
01C. Oral Maniac – Suck It (1:16)
01D. Technohead – Accelerator #4 (1:36)
01E. Maniac Of Noize – Mokummania (2:33)
01F. Annihilator – I'll Show You My Gun (1:36)
01G. Cyanide – Relatic (1:16)
01H. Lenny Dee & Ralphie Dee – Power Dominion (1:36)
01I. Analyzer – Victim Of Trance (2:33)
01J. Salami Brothers – Eat Zat Pizza (Veggie Mix) (1:41)
01K. Tellurian – Cocksuckers (2:18)
01L. High Energy – 20.000 Volt (1:26)
01M. Vitamin – In 16 Beats Time Second (1:21)
01N. Vitamin – My House Is Your House (1:34)

-

Лог создания рипа CD1

Exact Audio Copy V1.0 beta 3 from 29. August 2011
Отчёт EAC об извлечении, выполненном 10. февраля 2014, 12:43
Various / Terrordrome 02 - The Hardcore Cyberpunk 21st Century Gabba Trance (CD1)
Дисковод: Optiarc DVD RW AD-7261S Adapter: 1 ID: 1
Режим чтения : ДостоверностьИспользование точного потока : ДаОтключение кэша аудио : ДаИспользование указателей C2 : Нет
Коррекция смещения при чтении : 48Способность читать области Lead-in и Lead-out : НетЗаполнение пропущенных сэмплов тишиной : ДаУдаление блоков с тишиной в начале и конце : НетПри вычислениях CRC использовались нулевые сэмплы : ДаИнтерфейс : Встроенный Win32-интерфейс для Win NT/2000
Выходной формат : Внутренние WAV-операцииФормат сэмплов : 44.100 Гц; 16 бит; стерео
TOC извлечённого CD
Трек | Старт | Длительность | Начальный сектор | Конечный сектор --------------------------------------------------------------------- 1 | 0:00.00 | 1:22.20 | 0 | 6169 2 | 1:22.20 | 4:45.37 | 6170 | 27581 3 | 6:07.57 | 5:35.70 | 27582 | 52776 4 | 11:43.52 | 3:31.63 | 52777 | 68664 5 | 15:15.40 | 5:16.52 | 68665 | 92416 6 | 20:32.17 | 3:55.18 | 92417 | 110059 7 | 24:27.35 | 3:49.15 | 110060 | 127249 8 | 28:16.50 | 3:54.32 | 127250 | 144831 9 | 32:11.07 | 4:29.28 | 144832 | 165034 10 | 36:40.35 | 4:03.02 | 165035 | 183261 11 | 40:43.37 | 3:44.00 | 183262 | 200061 12 | 44:27.37 | 3:52.58 | 200062 | 217519 13 | 48:20.20 | 5:12.70 | 217520 | 240989 14 | 53:33.15 | 3:45.17 | 240990 | 257881 15 | 57:18.32 | 4:56.55 | 257882 | 280136 16 | 62:15.12 | 4:24.38 | 280137 | 299974
Характеристики диапазона извлечения и сообщения об ошибках
Выбранный диапазон
Имя файла C:\Users\Meijin\Desktop\Новая папка (4)\Various - Terrordrome 02 - The Hardcore Cyberpunk 21st Century Gabba Trance (CD1).wav
Пиковый уровень 100.0 % Скорость извлечения 4.3 X Качество диапазона 100.0 % CRC теста A00E68EB CRC копии A00E68EB Копирование... OK
Ошибок не произошло
AccurateRip: сводка
Трек 1 : извлечено точно (доверие 5) [BFB2AF0F] (AR v2)Трек 2 : извлечено точно (доверие 4) [5C2D00C6] (AR v2)Трек 3 : извлечено точно (доверие 4) [2D633258] (AR v2)Трек 4 : извлечено точно (доверие 4) [1599A2F4] (AR v2)Трек 5 : извлечено точно (доверие 3) [291B29CF] (AR v2)Трек 6 : извлечено точно (доверие 4) [EE772970] (AR v2)Трек 7 : извлечено точно (доверие 4) [93D4E246] (AR v2)Трек 8 : извлечено точно (доверие 4) [53BFD309] (AR v2)Трек 9 : извлечено точно (доверие 3) [97779E10] (AR v2)Трек 10 : извлечено точно (доверие 4) [FF81E4A2] (AR v2)Трек 11 : извлечено точно (доверие 3) [52884ACD] (AR v2)Трек 12 : извлечено точно (доверие 3) [07B96DD7] (AR v2)Трек 13 : извлечено точно (доверие 3) [0F103323] (AR v2)Трек 14 : извлечено точно (доверие 3) [054FD05C] (AR v2)Трек 15 : извлечено точно (доверие 3) [37561E2F] (AR v2)Трек 16 : извлечено точно (доверие 3) [C915F283] (AR v2)
Все треки извлечены точно
Конец отчёта
==== Контрольная сумма отчёта 7724827AB745A3046E6A72F8A51DED12947FD77693406FC41DE3BF5B66FA582A ====

Лог создания рипа CD2

Exact Audio Copy V1.0 beta 3 from 29. August 2011
Отчёт EAC об извлечении, выполненном 10. февраля 2014, 21:01
Various / Terrordrome 02 - The Hardcore Cyberpunk 21st Century Gabba Trance (CD2)
Дисковод: Optiarc DVD RW AD-7261S Adapter: 1 ID: 1
Режим чтения : ДостоверностьИспользование точного потока : ДаОтключение кэша аудио : ДаИспользование указателей C2 : Нет
Коррекция смещения при чтении : 48Способность читать области Lead-in и Lead-out : НетЗаполнение пропущенных сэмплов тишиной : ДаУдаление блоков с тишиной в начале и конце : НетПри вычислениях CRC использовались нулевые сэмплы : ДаИнтерфейс : Встроенный Win32-интерфейс для Win NT/2000
Выходной формат : Внутренние WAV-операцииФормат сэмплов : 44.100 Гц; 16 бит; стерео
TOC извлечённого CD
Трек | Старт | Длительность | Начальный сектор | Конечный сектор --------------------------------------------------------------------- 1 | 0:00.00 | 1:25.02 | 0 | 6376 2 | 1:25.02 | 5:39.35 | 6377 | 31836 3 | 7:04.37 | 4:03.53 | 31837 | 50114 4 | 11:08.15 | 4:00.00 | 50115 | 68114 5 | 15:08.15 | 6:01.15 | 68115 | 95204 6 | 21:09.30 | 4:23.65 | 95205 | 114994 7 | 25:33.20 | 4:19.12 | 114995 | 134431 8 | 29:52.32 | 4:02.28 | 134432 | 152609 9 | 33:54.60 | 6:22.10 | 152610 | 181269 10 | 40:16.70 | 4:01.20 | 181270 | 199364 11 | 44:18.15 | 3:38.57 | 199365 | 215771 12 | 47:56.72 | 3:50.03 | 215772 | 233024 13 | 51:47.00 | 4:10.05 | 233025 | 251779 14 | 55:57.05 | 4:20.17 | 251780 | 271296 15 | 60:17.22 | 4:57.15 | 271297 | 293586 16 | 65:14.37 | 1:52.60 | 293587 | 302046
Характеристики диапазона извлечения и сообщения об ошибках
Выбранный диапазон
Имя файла C:\Users\Meijin\Desktop\Новая папка (4)\Various - Terrordrome 02 - The Hardcore Cyberpunk 21st Century Gabba Trance (CD2).wav
Пиковый уровень 99.9 % Скорость извлечения 4.3 X Качество диапазона 100.0 % CRC теста 82BC24E8 CRC копии 82BC24E8 Копирование... OK
Ошибок не произошло
AccurateRip: сводка
Трек 1 : извлечено точно (доверие 4) [433BEC4E] (AR v2)Трек 2 : извлечено точно (доверие 4) [14BE8139] (AR v2)Трек 3 : извлечено точно (доверие 4) [772AF1D5] (AR v2)Трек 4 : извлечено точно (доверие 4) [110823A3] (AR v2)Трек 5 : извлечено точно (доверие 4) [50A42851] (AR v2)Трек 6 : извлечено точно (доверие 3) [DAC733E7] (AR v2)Трек 7 : извлечено точно (доверие 4) [B1AC1103] (AR v2)Трек 8 : извлечено точно (доверие 4) [13BDD1FB] (AR v2)Трек 9 : извлечено точно (доверие 4) [0C8E3364] (AR v2)Трек 10 : извлечено точно (доверие 4) [AD997FB7] (AR v2)Трек 11 : извлечено точно (доверие 4) [FC330493] (AR v2)Трек 12 : извлечено точно (доверие 4) [BB4FEC43] (AR v2)Трек 13 : извлечено точно (доверие 3) [C43A20D2] (AR v2)Трек 14 : извлечено точно (доверие 3) [D7E2C435] (AR v2)Трек 15 : извлечено точно (доверие 2) [D5F560CC] (AR v2)Трек 16 : извлечено точно (доверие 2) [1B9B9FAC] (AR v2)
Все треки извлечены точно
Конец отчёта
==== Контрольная сумма отчёта C563D3E6B02933C021B673811E9D559BCEDD5FC180968CFA9EDD0C280C038523 ====

Лог создания рипа CD3

Exact Audio Copy V1.0 beta 3 from 29. August 2011
Отчёт EAC об извлечении, выполненном 11. февраля 2014, 11:38
Various / Terrordrome 02 - The Hardcore Cyberpunk 21st Century Gabba Trance (CD3)
Дисковод: Optiarc DVD RW AD-7261S Adapter: 1 ID: 1
Режим чтения : ДостоверностьИспользование точного потока : ДаОтключение кэша аудио : ДаИспользование указателей C2 : Нет
Коррекция смещения при чтении : 48Способность читать области Lead-in и Lead-out : НетЗаполнение пропущенных сэмплов тишиной : ДаУдаление блоков с тишиной в начале и конце : НетПри вычислениях CRC использовались нулевые сэмплы : ДаИнтерфейс : Встроенный Win32-интерфейс для Win NT/2000
Выходной формат : Внутренние WAV-операцииФормат сэмплов : 44.100 Гц; 16 бит; стерео
TOC извлечённого CD
Трек | Старт | Длительность | Начальный сектор | Конечный сектор --------------------------------------------------------------------- 1 | 0:00.00 | 25:26.25 | 0 | 114474
Характеристики диапазона извлечения и сообщения об ошибках
Выбранный диапазон
Имя файла C:\Users\Meijin\Desktop\Новая папка (4)\Various - Terrordrome 02 - The Hardcore Cyberpunk 21st Century Gabba Trance (CD3).wav
Пиковый уровень 99.1 % Скорость извлечения 3.2 X Качество диапазона 100.0 % CRC теста 847CFE16 CRC копии 847CFE16 Копирование... OK
Ошибок не произошло
AccurateRip: сводка
Трек 1 : извлечено точно (доверие 3) [3FCBE769] (AR v2)
Все треки извлечены точно
Конец отчёта
==== Контрольная сумма отчёта 1C1545E424D21DC56CFC25EF66A268EEFB144C090677D87B0F4AA82872AF587D ====

VA - Terrordrome III - The Party Animal Edition - The Ultimate Hardcore Party Nightmare! - 1994, [3xCD], (Control - [0041122CON]) /2:52:58/

Треклист:
CD1: (1:05:06)
01. Strontium 9000 – Totally Tranceparant Jungle 2000 (1:39)
02. Dyewittness & Nightraver, The – The Future (4:59)
03. Chosen Few – Ravedome (4:45)
04. Annihilator – Into The Wild Style (3:48)
05. Keng – Induce Trance (3:09)
06. Force DJ Team – Do It! (4:47)
07. Pineapple Jack – Go Out Of Your Mind (5:05)
08. Tellurian – Get Stupid (4:21)
09. Hyperact – House Aggression (3:44)
10. DJ Fistfuck – Pussy Poison (4:32)
11. Original Gabber – Pump That Puzzy (Technohead Mix) (5:07)
12. Evil Maniax – 4xFunk (4:54)
13. Haardcore – Straight Up (5:07)
14. E De Cologne – …Die Extase Versprechen (4:44)
15. DJ Dano – Oooooh Shit (Shit'E' Brooklyn Mix) (4:17)

CD2: (1:09:32)

01. Chosen Few – Party! (4:28)
02. Search & Destroy – Madness Revisited (5:00)
03. Titanium Steel – Titanium Steel Screws Remix (4:41)
04. Technohead – Jetset No.1 (4:30)
05. Cyanide – Feeling (4:56)
06. Chosen Few – After Hourz (Technohead Mix) (4:55)
07. Tellurian – So Damn Tough (3:50)
08. Reyes – No Escape (4:46)
09. Triplet – Hairy (4:49)
10. Speedfreak – Body Hammer (5:26)
11. Original Gabber – I Wanna Be (A Motherf**king Hustler) (4:30)
12. Technohead – Accelerator No.2 (4:37)
13. Cyanide – I'm Gonna Get You (4:01)
14. High Energy – Revolution (3:55)
15. Search & Destroy – Don't Need Nobody (5:00)

CD3: The Party Animal Megamix (0:38:20)

01A. Technohead – Jetset No.1 (2:39)
01B. Dyewitness & Nightraver, The – The Future (4:21)
01C. Chosen Few – Party! (2:12)
01D. Search & Destroy – Don't Need Nobody (3:05)
01E. Chosen Few – After Hourz (Technohead Mix) (2:59)
01F. Keng – Induce Trance (2:14)
01G. Hyperact – House Aggression (2:24)
01H. Reyes – No Escape (2:25)
01I. Evil Maniax – 4xFunk (2:14)
01J. Annihilator – Into The Wild Style (2:35)
01K. Search & Destroy – Madness Revisited (2:40)
01L. Tellurian – So Damn Tough (2:15)
01M. DJ Fistfuck – Pussy Poison (2:21)
01N. E De Cologne – …Die Extase Versprechen (3:52)

-

Лог создания рипа CD1

Exact Audio Copy V1.0 beta 3 from 29. August 2011
Отчёт EAC об извлечении, выполненном 11. февраля 2014, 12:14
Various / Terrordrome III - The Ultimate Hardcore Party Nightmare! - CD1
Дисковод: Optiarc DVD RW AD-7261S Adapter: 1 ID: 1
Режим чтения : ДостоверностьИспользование точного потока : ДаОтключение кэша аудио : ДаИспользование указателей C2 : Нет
Коррекция смещения при чтении : 48Способность читать области Lead-in и Lead-out : НетЗаполнение пропущенных сэмплов тишиной : ДаУдаление блоков с тишиной в начале и конце : НетПри вычислениях CRC использовались нулевые сэмплы : ДаИнтерфейс : Встроенный Win32-интерфейс для Win NT/2000
Выходной формат : Внутренние WAV-операцииФормат сэмплов : 44.100 Гц; 16 бит; стерео
TOC извлечённого CD
Трек | Старт | Длительность | Начальный сектор | Конечный сектор --------------------------------------------------------------------- 1 | 0:00.00 | 1:39.72 | 0 | 7496 2 | 1:39.72 | 4:59.70 | 7497 | 29991 3 | 6:39.67 | 4:45.65 | 29992 | 51431 4 | 11:25.57 | 3:48.00 | 51432 | 68531 5 | 15:13.57 | 3:09.30 | 68532 | 82736 6 | 18:23.12 | 4:47.23 | 82737 | 104284 7 | 23:10.35 | 5:05.57 | 104285 | 127216 8 | 28:16.17 | 4:21.33 | 127217 | 146824 9 | 32:37.50 | 3:44.35 | 146825 | 163659 10 | 36:22.10 | 4:32.17 | 163660 | 184076 11 | 40:54.27 | 5:07.13 | 184077 | 207114 12 | 46:01.40 | 4:54.47 | 207115 | 229211 13 | 50:56.12 | 5:07.58 | 229212 | 252294 14 | 56:03.70 | 4:44.35 | 252295 | 273629 15 | 60:48.30 | 4:17.45 | 273630 | 292949
Характеристики диапазона извлечения и сообщения об ошибках
Выбранный диапазон
Имя файла C:\Users\Meijin\Desktop\Новая папка (4)\Various - Terrordrome III - The Ultimate Hardcore Party Nightmare! - CD1.wav
Пиковый уровень 100.0 % Скорость извлечения 4.1 X Качество диапазона 99.9 % CRC теста 5D8EB75E CRC копии 5D8EB75E Копирование... OK
Ошибок не произошло
AccurateRip: сводка
Трек 1 : извлечено точно (доверие 4) [7E1CBB11] (AR v2)Трек 2 : извлечено точно (доверие 4) [49F7BD76] (AR v2)Трек 3 : извлечено точно (доверие 4) [9E1D2F80] (AR v2)Трек 4 : извлечено точно (доверие 4) [33EBCCCD] (AR v2)Трек 5 : извлечено точно (доверие 4) [676962FE] (AR v2)Трек 6 : извлечено точно (доверие 4) [0B0D61AB] (AR v2)Трек 7 : извлечено точно (доверие 4) [CCE10D68] (AR v2)Трек 8 : извлечено точно (доверие 4) [58944155] (AR v2)Трек 9 : извлечено точно (доверие 4) [7E1E37FC] (AR v2)Трек 10 : извлечено точно (доверие 4) [4950FC42] (AR v2)Трек 11 : извлечено точно (доверие 4) [1F5E22E0] (AR v2)Трек 12 : извлечено точно (доверие 4) [6C883459] (AR v2)Трек 13 : извлечено точно (доверие 4) [43E5DEE6] (AR v2)Трек 14 : извлечено точно (доверие 4) [33DAA5A7] (AR v2)Трек 15 : извлечено точно (доверие 4) [4639C807] (AR v2)
Все треки извлечены точно
Конец отчёта
==== Контрольная сумма отчёта 880EA09FE4683DA83A781C1935A27F3EB07294B9847A24BB798F2DFED4222E74 ====

Лог создания рипа CD2

Exact Audio Copy V1.0 beta 3 from 29. August 2011
Отчёт EAC об извлечении, выполненном 11. февраля 2014, 12:48
Various / Terrordrome III - The Ultimate Hardcore Party Nightmare! - CD 2
Дисковод: Optiarc DVD RW AD-7261S Adapter: 1 ID: 1
Режим чтения : ДостоверностьИспользование точного потока : ДаОтключение кэша аудио : ДаИспользование указателей C2 : Нет
Коррекция смещения при чтении : 48Способность читать области Lead-in и Lead-out : НетЗаполнение пропущенных сэмплов тишиной : ДаУдаление блоков с тишиной в начале и конце : НетПри вычислениях CRC использовались нулевые сэмплы : ДаИнтерфейс : Встроенный Win32-интерфейс для Win NT/2000
Выходной формат : Внутренние WAV-операцииФормат сэмплов : 44.100 Гц; 16 бит; стерео
TOC извлечённого CD
Трек | Старт | Длительность | Начальный сектор | Конечный сектор --------------------------------------------------------------------- 1 | 0:00.00 | 4:28.02 | 0 | 20101 2 | 4:28.02 | 5:00.43 | 20102 | 42644 3 | 9:28.45 | 4:41.15 | 42645 | 63734 4 | 14:09.60 | 4:31.15 | 63735 | 84074 5 | 18:41.00 | 4:55.70 | 84075 | 106269 6 | 23:36.70 | 4:55.72 | 106270 | 128466 7 | 28:32.67 | 3:50.65 | 128467 | 145781 8 | 32:23.57 | 4:46.23 | 145782 | 167254 9 | 37:10.05 | 4:49.12 | 167255 | 188941 10 | 41:59.17 | 5:26.58 | 188942 | 213449 11 | 47:26.00 | 4:30.60 | 213450 | 233759 12 | 51:56.60 | 4:37.65 | 233760 | 254599 13 | 56:34.50 | 4:01.47 | 254600 | 272721 14 | 60:36.22 | 3:55.28 | 272722 | 290374 15 | 64:31.50 | 5:00.47 | 290375 | 312921
Характеристики диапазона извлечения и сообщения об ошибках
Выбранный диапазон
Имя файла C:\Users\Meijin\Desktop\Новая папка (4)\Various - Terrordrome III - The Ultimate Hardcore Party Nightmare! - CD 2.wav
Пиковый уровень 89.1 % Скорость извлечения 4.3 X Качество диапазона 100.0 % CRC теста 0DB84C51 CRC копии 0DB84C51 Копирование... OK
Ошибок не произошло
AccurateRip: сводка
Трек 1 : извлечено точно (доверие 4) [8F9136E5] (AR v2)Трек 2 : извлечено точно (доверие 4) [6E97E6C5] (AR v2)Трек 3 : извлечено точно (доверие 4) [603B96F5] (AR v2)Трек 4 : извлечено точно (доверие 4) [F5381AB0] (AR v2)Трек 5 : извлечено точно (доверие 4) [3FB768B8] (AR v2)Трек 6 : извлечено точно (доверие 4) [BCFE7D21] (AR v2)Трек 7 : извлечено точно (доверие 4) [CB09EE63] (AR v2)Трек 8 : извлечено точно (доверие 4) [3D13959A] (AR v2)Трек 9 : извлечено точно (доверие 4) [8E61A42E] (AR v2)Трек 10 : извлечено точно (доверие 4) [B5668865] (AR v2)Трек 11 : извлечено точно (доверие 4) [72593E5C] (AR v2)Трек 12 : извлечено точно (доверие 4) [94BE728B] (AR v2)Трек 13 : извлечено точно (доверие 4) [06A3C83C] (AR v2)Трек 14 : извлечено точно (доверие 4) [74ABCCCF] (AR v2)Трек 15 : извлечено точно (доверие 4) [7C82F9E8] (AR v2)
Все треки извлечены точно
Конец отчёта
==== Контрольная сумма отчёта AC2B9FCA7999123CFA51B2E9454B2F4EB776D2BEA2745512664B427A53BE8E37 ====

Лог создания рипа CD3

Exact Audio Copy V1.0 beta 3 from 29. August 2011
Отчёт EAC об извлечении, выполненном 11. февраля 2014, 13:17
Various / Terrordrome III - The Ultimate Hardcore Party Nightmare! - CD3
Дисковод: Optiarc DVD RW AD-7261S Adapter: 1 ID: 1
Режим чтения : ДостоверностьИспользование точного потока : ДаОтключение кэша аудио : ДаИспользование указателей C2 : Нет
Коррекция смещения при чтении : 48Способность читать области Lead-in и Lead-out : НетЗаполнение пропущенных сэмплов тишиной : ДаУдаление блоков с тишиной в начале и конце : НетПри вычислениях CRC использовались нулевые сэмплы : ДаИнтерфейс : Встроенный Win32-интерфейс для Win NT/2000
Выходной формат : Внутренние WAV-операцииФормат сэмплов : 44.100 Гц; 16 бит; стерео
TOC извлечённого CD
Трек | Старт | Длительность | Начальный сектор | Конечный сектор --------------------------------------------------------------------- 1 | 0:00.00 | 38:19.52 | 0 | 172476
Характеристики диапазона извлечения и сообщения об ошибках
Выбранный диапазон
Имя файла C:\Users\Meijin\Desktop\Новая папка (4)\Various - Terrordrome III - The Ultimate Hardcore Party Nightmare! - CD3.wav
Пиковый уровень 99.5 % Скорость извлечения 3.6 X Качество диапазона 100.0 % CRC теста 0DE97F0E CRC копии 0DE97F0E Копирование... OK
Ошибок не произошло
AccurateRip: сводка
Трек 1 : извлечено точно (доверие 3) [423F1453] (AR v2)
Все треки извлечены точно
Конец отчёта
==== Контрольная сумма отчёта CE447D9DC3B75197734346638D7FE4B5B2D9115414B09A006EEE4E4F99ADA9FC ====

VA - Terrordrome IV - Supersonic Guerilla - Hardcore Underground Warfare - 1995, [3xCD], (Control - [0041292CON]) /2:45:14/

Треклист:
CD1: (1:10:15)
01. Sonic Warrior – Supersonic Guerilla (4:20)
02. Technohead – Mary-Jane (4:59)
03. Lock Jaw – Underground Funk (4:14)
04. Search & Destroy – Iron Man (6:31)
05. Titanium Steel – People Of Tomorrow (4:11)
06. Haardcore – Toxic (4:25)
07. DJ Dano & Liza N Eliaz – Gimme A Break! (4:27)
08. Original Gabba, The – Life Is Like A Dance (5:27)
09. Reyes – New Jam (4:26)
10. Tellurian – Squash The Floor (3:36)
11. Armageddon – The Viper (3:24)
12. Uranium – Rippin' Off Wax (3:57)
13. Cyanide – Stringz (Remix) (4:41)
14. Speedfreak, The – Never Surrender (Wendy Lost Control Remix) (6:31)
15. DJ Dano & Liza N Eliaz – Energy Boost (5:05)

CD2: (1:07:31)

01. Chosen Few – Supersonic Guerilla Motherf**ker (1:03)
02. Pineapple Jack – Do That Dance (5:33)
03. Technohead – I Wanna Be A Hippy (5:03)
04. Search & Destroy – Reach The Sky (Remix) (5:31)
05. DJ Paul Elstak – Pump This Party (4:23)
06. Original Gabba, The – Kick Some Azz (5:26)
07. Hardcoretrancer – Progressive (4:42)
08. Scarface – Let The Dope Get In Your Soul (5:19)
09. Brothers In Crime – Dance (Charly Lownoise Mix) (4:30)
10. Bassground – We Are One (4:15)
11. Vinyl Killer – Ain't Shit Happening (3:55)
12. DJ Duco – Say It Again (4:36)
13. High Energy – Bass Warrior (3:39)
14. Titanium Steel – Paralyzed (6:09)
15. Klootzak vs. Kotszak – Zum Kotzen (3:27)

CD3: Supersonic Hardcore Guerillamix (0:27:28)

01.1 Technohead – Mary-Jane
01.2 Titanium Steel – People Of Tomorrow
01.3 Search & Destroy – Iron Man
01.4 Cyanide – Heartbreak
01.5 Pineapple Jack – Do That Dance
01.6 Haardcore – Toxic
01.7 DJ Dano & Liza N Eliaz – Gimme A Break!
01.8 Sonic Warrior – Supersonic Guerilla
01.9 Tellurian – Squash The Floor
01.10 Original Gabba, The – Kick Some Azz
01.11 High Energy – Bass Warrior
01.12 Original Gabba, The – Life Is Like A Dance
01.13 Vinyl Killer – Ain't Shit Happening

-

Лог создания рипа CD1

Exact Audio Copy V1.0 beta 3 from 29. August 2011
Отчёт EAC об извлечении, выполненном 11. февраля 2014, 14:55
Various / Terrordrome 04 - Supersonic Guerilla - Hardcore Underground Warfare (CD1)
Дисковод: Optiarc DVD RW AD-7261S Adapter: 1 ID: 1
Режим чтения : ДостоверностьИспользование точного потока : ДаОтключение кэша аудио : ДаИспользование указателей C2 : Нет
Коррекция смещения при чтении : 48Способность читать области Lead-in и Lead-out : НетЗаполнение пропущенных сэмплов тишиной : ДаУдаление блоков с тишиной в начале и конце : НетПри вычислениях CRC использовались нулевые сэмплы : ДаИнтерфейс : Встроенный Win32-интерфейс для Win NT/2000
Выходной формат : Внутренние WAV-операцииФормат сэмплов : 44.100 Гц; 16 бит; стерео
TOC извлечённого CD
Трек | Старт | Длительность | Начальный сектор | Конечный сектор --------------------------------------------------------------------- 1 | 0:00.00 | 4:20.00 | 0 | 19499 2 | 4:20.00 | 4:59.12 | 19500 | 41936 3 | 9:19.12 | 4:14.03 | 41937 | 60989 4 | 13:33.15 | 6:30.72 | 60990 | 90311 5 | 20:04.12 | 4:10.70 | 90312 | 109131 6 | 24:15.07 | 4:24.50 | 109132 | 128981 7 | 28:39.57 | 4:27.18 | 128982 | 149024 8 | 33:07.00 | 5:27.10 | 149025 | 173559 9 | 38:34.10 | 4:25.72 | 173560 | 193506 10 | 43:00.07 | 3:36.00 | 193507 | 209706 11 | 46:36.07 | 3:23.63 | 209707 | 224994 12 | 49:59.70 | 3:56.72 | 224995 | 242766 13 | 53:56.67 | 4:41.30 | 242767 | 263871 14 | 58:38.22 | 6:31.18 | 263872 | 293214 15 | 65:09.40 | 5:05.05 | 293215 | 316094
Характеристики диапазона извлечения и сообщения об ошибках
Выбранный диапазон
Имя файла C:\Users\Meijin\Desktop\Новая папка (4)\Various - Terrordrome 04 - Supersonic Guerilla - Hardcore Underground Warfare (CD1).wav
Пиковый уровень 99.0 % Скорость извлечения 4.4 X Качество диапазона 100.0 % CRC теста C2BCEA65 CRC копии C2BCEA65 Копирование... OK
Ошибок не произошло
AccurateRip: сводка
Трек 1 : извлечено точно (доверие 3) [F5CBEAE9] (AR v2)Трек 2 : извлечено точно (доверие 3) [704986D3] (AR v2)Трек 3 : извлечено точно (доверие 3) [A74C3595] (AR v2)Трек 4 : извлечено точно (доверие 3) [69C64988] (AR v2)Трек 5 : извлечено точно (доверие 2) [A6F424DF] (AR v2)Трек 6 : извлечено точно (доверие 2) [327D04FD] (AR v2)Трек 7 : извлечено точно (доверие 3) [00446C62] (AR v2)Трек 8 : извлечено точно (доверие 3) [52A33A3F] (AR v2)Трек 9 : извлечено точно (доверие 3) [98F199D6] (AR v2)Трек 10 : извлечено точно (доверие 2) [C3BC412D] (AR v2)Трек 11 : извлечено точно (доверие 3) [5038D363] (AR v2)Трек 12 : извлечено точно (доверие 3) [92C9DB94] (AR v2)Трек 13 : извлечено точно (доверие 3) [C1E34CE6] (AR v2)Трек 14 : извлечено точно (доверие 3) [563F8103] (AR v2)Трек 15 : извлечено точно (доверие 3) [782ECD66] (AR v2)
Все треки извлечены точно
Конец отчёта
==== Контрольная сумма отчёта 699FD4D4536319F249962C857DD3DE6BBFC17D3BA69DB1C139A7C5D02FDF78C9 ====

Лог создания рипа CD2

Exact Audio Copy V1.0 beta 3 from 29. August 2011
Отчёт EAC об извлечении, выполненном 11. февраля 2014, 17:05
Various / Terrordrome 04 - Supersonic Guerilla - Hardcore Underground Warfare (CD2)
Дисковод: Optiarc DVD RW AD-7261S Adapter: 1 ID: 1
Режим чтения : ДостоверностьИспользование точного потока : ДаОтключение кэша аудио : ДаИспользование указателей C2 : Нет
Коррекция смещения при чтении : 48Способность читать области Lead-in и Lead-out : НетЗаполнение пропущенных сэмплов тишиной : ДаУдаление блоков с тишиной в начале и конце : НетПри вычислениях CRC использовались нулевые сэмплы : ДаИнтерфейс : Встроенный Win32-интерфейс для Win NT/2000
Выходной формат : Внутренние WAV-операцииФормат сэмплов : 44.100 Гц; 16 бит; стерео
TOC извлечённого CD
Трек | Старт | Длительность | Начальный сектор | Конечный сектор --------------------------------------------------------------------- 1 | 0:00.00 | 1:03.27 | 0 | 4751 2 | 1:03.27 | 5:32.50 | 4752 | 29701 3 | 6:36.02 | 5:03.00 | 29702 | 52426 4 | 11:39.02 | 5:30.70 | 52427 | 77246 5 | 17:09.72 | 4:23.20 | 77247 | 96991 6 | 21:33.17 | 5:25.73 | 96992 | 121439 7 | 26:59.15 | 4:42.00 | 121440 | 142589 8 | 31:41.15 | 5:19.10 | 142590 | 166524 9 | 37:00.25 | 4:30.20 | 166525 | 186794 10 | 41:30.45 | 4:15.25 | 186795 | 205944 11 | 45:45.70 | 3:54.67 | 205945 | 223561 12 | 49:40.62 | 4:35.58 | 223562 | 244244 13 | 54:16.45 | 3:38.57 | 244245 | 260651 14 | 57:55.27 | 6:09.00 | 260652 | 288326 15 | 64:04.27 | 3:27.00 | 288327 | 303851
Характеристики диапазона извлечения и сообщения об ошибках
Выбранный диапазон
Имя файла C:\Users\Meijin\Desktop\Новая папка (4)\Various - Terrordrome 04 - Supersonic Guerilla - Hardcore Underground Warfare (CD2).wav
Пиковый уровень 98.9 % Скорость извлечения 4.3 X Качество диапазона 99.9 % CRC теста 0718BFDA CRC копии 0718BFDA Копирование... OK
Ошибок не произошло
AccurateRip: сводка
Трек 1 : извлечено точно (доверие 3) [1D2FADCA] (AR v2)Трек 2 : извлечено точно (доверие 3) [DD5FBB74] (AR v2)Трек 3 : извлечено точно (доверие 3) [F9C80675] (AR v2)Трек 4 : извлечено точно (доверие 3) [A2ACE39E] (AR v2)Трек 5 : извлечено точно (доверие 3) [E0B8666F] (AR v2)Трек 6 : извлечено точно (доверие 3) [9CEB4837] (AR v2)Трек 7 : извлечено точно (доверие 3) [0C5566A9] (AR v2)Трек 8 : извлечено точно (доверие 3) [01FCE3F6] (AR v2)Трек 9 : извлечено точно (доверие 3) [EA49A174] (AR v2)Трек 10 : извлечено точно (доверие 3) [8A318866] (AR v2)Трек 11 : извлечено точно (доверие 3) [420931E4] (AR v2)Трек 12 : извлечено точно (доверие 3) [6F144B01] (AR v2)Трек 13 : извлечено точно (доверие 3) [922385D1] (AR v2)Трек 14 : извлечено точно (доверие 3) [22C59D7E] (AR v2)Трек 15 : извлечено точно (доверие 3) [A9908241] (AR v2)
Все треки извлечены точно
Конец отчёта
==== Контрольная сумма отчёта 09E248E42B2380CC43B220894DFCC5C07B7F8693B61537F5607DDB434A979129 ====

Лог создания рипа CD3

Exact Audio Copy V1.0 beta 3 from 29. August 2011
Отчёт EAC об извлечении, выполненном 11. февраля 2014, 17:25
Various / Terrordrome 04 - Supersonic Guerilla - Hardcore Underground Warfare (CD3)
Дисковод: Optiarc DVD RW AD-7261S Adapter: 1 ID: 1
Режим чтения : ДостоверностьИспользование точного потока : ДаОтключение кэша аудио : ДаИспользование указателей C2 : Нет
Коррекция смещения при чтении : 48Способность читать области Lead-in и Lead-out : НетЗаполнение пропущенных сэмплов тишиной : ДаУдаление блоков с тишиной в начале и конце : НетПри вычислениях CRC использовались нулевые сэмплы : ДаИнтерфейс : Встроенный Win32-интерфейс для Win NT/2000
Выходной формат : Внутренние WAV-операцииФормат сэмплов : 44.100 Гц; 16 бит; стерео
TOC извлечённого CD
Трек | Старт | Длительность | Начальный сектор | Конечный сектор --------------------------------------------------------------------- 1 | 0:00.00 | 27:28.15 | 0 | 123614
Характеристики диапазона извлечения и сообщения об ошибках
Выбранный диапазон
Имя файла C:\Users\Meijin\Desktop\Новая папка (4)\Various - Terrordrome 04 - Supersonic Guerilla - Hardcore Underground Warfare (CD3).wav
Пиковый уровень 99.0 % Скорость извлечения 3.3 X Качество диапазона 100.0 % CRC теста CF715DD8 CRC копии CF715DD8 Копирование... OK
Ошибок не произошло
AccurateRip: сводка
Трек 1 : извлечено точно (доверие 2) [217CCFE3] (AR v2)
Все треки извлечены точно
Конец отчёта
==== Контрольная сумма отчёта EE16D2AF97B7EAF8DA3AA6D59D8FC980600EDE51F075DCA7A8B8594B15A316AE ====

VA - Terrordrome V - Darkside From Hell - 1995, [2xCD], (Control - [0041502CON]) /2:27:18/

Треклист:
CD1: (1:13:28)
01. Unknown Artist – Intro "Terrordrome V" (0:34)
02. BSE DJ Team – Outbreak (3:58)
03. Laurent Ho – Rkor Markine (3:53)
04. Synthetic Anarchist – Wenn Du Exstasy Nimmst... (3:18)
05. Noize Creator – Gangzta (5:02)
06. Nordcore G.M.B.H. – Robocop (5:54)
07. Gangstar Toons Industry – 000 (5:04)
08. Nordcore Psychopath – Destruction (3:27)
09. BSE DJ Team – Flatline (2:06)
10. Napalm – T-Model (4:33)
11. Nordcore G.M.B.H. – Bewegt Euch (5:46)
12. DJ Heaven – Oh Peaggy (4:44)
13. DJ Olli – Suckes Time (4:02)
14. Psyche Out – Noise Attack (3:50)
15. East West Posse – Right Is Wrong (5:58)
16. Napalm – Scream (2:26)
17. Fazer 5 – Innosence Trip (4:42)
18. Nordcore G.M.B.H. – Power Of Darkness (3:59)

CD2: (1:13:51)

01. Trash Enemy HQ – Limbus #1 (6:27)
02. Laurent Ho – Tr Press (4:43)
03. Quindoor – Little Katharina (5:32)
04. UBX – Evidence (6:22)
05. Obituary H.C., The – First Time On This Phuture (4:37)
06. Neuwerk – Oklahoma City (4:20)
07. Borschtsch – Das Lied Vom Angeln (4:57)
08. Speed Freak, The – Worst (4:49)
09. Quindoor – Pelle Ist Hakke (5:42)
10. East West Posse – Sinclair On Air (2:33)
11. E-De-Cologne – Dance Now (4:39)
12. DJ Cut-X – Pump That Terror (5:22)
13. Gangstar Toons Industry – Close To Danger (4:28)
14. B.C. Kid – Fucking Guitar (4:38)
15. Neuwerk – Microburst (4:32)

-

Лог создания рипа CD1

Exact Audio Copy V1.0 beta 3 from 29. August 2011
Отчёт EAC об извлечении, выполненном 11. февраля 2014, 18:01
Various / Terrordrome 05 - Darkside From Hell (CD1)
Дисковод: Optiarc DVD RW AD-7261S Adapter: 1 ID: 1
Режим чтения : ДостоверностьИспользование точного потока : ДаОтключение кэша аудио : ДаИспользование указателей C2 : Нет
Коррекция смещения при чтении : 48Способность читать области Lead-in и Lead-out : НетЗаполнение пропущенных сэмплов тишиной : ДаУдаление блоков с тишиной в начале и конце : НетПри вычислениях CRC использовались нулевые сэмплы : ДаИнтерфейс : Встроенный Win32-интерфейс для Win NT/2000
Выходной формат : Внутренние WAV-операцииФормат сэмплов : 44.100 Гц; 16 бит; стерео
TOC извлечённого CD
Трек | Старт | Длительность | Начальный сектор | Конечный сектор --------------------------------------------------------------------- 1 | 0:00.00 | 0:34.65 | 0 | 2614 2 | 0:34.65 | 3:58.56 | 2615 | 20520 3 | 4:33.46 | 3:53.31 | 20521 | 38026 4 | 8:27.02 | 3:18.01 | 38027 | 52877 5 | 11:45.03 | 5:02.34 | 52878 | 75561 6 | 16:47.37 | 5:54.29 | 75562 | 102140 7 | 22:41.66 | 5:04.55 | 102141 | 124995 8 | 27:46.46 | 3:27.56 | 124996 | 140576 9 | 31:14.27 | 2:06.50 | 140577 | 150076 10 | 33:21.02 | 4:33.11 | 150077 | 170562 11 | 37:54.13 | 5:46.61 | 170563 | 196573 12 | 43:40.74 | 4:44.08 | 196574 | 217881 13 | 48:25.07 | 4:02.04 | 217882 | 236035 14 | 52:27.11 | 3:50.36 | 236036 | 253321 15 | 56:17.47 | 5:58.49 | 253322 | 280220 16 | 62:16.21 | 2:26.53 | 280221 | 291223 17 | 64:42.74 | 4:42.74 | 291224 | 312447 18 | 69:25.73 | 4:01.41 | 312448 | 330563
Характеристики диапазона извлечения и сообщения об ошибках
Выбранный диапазон
Имя файла C:\Users\Meijin\Desktop\Новая папка (4)\Various - Terrordrome 05 - Darkside From Hell (CD1).wav
Пиковый уровень 98.4 % Скорость извлечения 4.4 X Качество диапазона 99.9 % CRC теста 7A9561B2 CRC копии 7A9561B2 Копирование... OK
Ошибок не произошло
AccurateRip: сводка
Трек 1 : извлечено точно (доверие 4) [94D8D000] (AR v2)Трек 2 : извлечено точно (доверие 4) [6C7DDCBC] (AR v2)Трек 3 : извлечено точно (доверие 4) [07F0B780] (AR v2)Трек 4 : извлечено точно (доверие 4) [7041FBFC] (AR v2)Трек 5 : извлечено точно (доверие 4) [CF5CD2A6] (AR v2)Трек 6 : извлечено точно (доверие 4) [DE2C85F0] (AR v2)Трек 7 : извлечено точно (доверие 4) [36639EA3] (AR v2)Трек 8 : извлечено точно (доверие 4) [E249CF6F] (AR v2)Трек 9 : извлечено точно (доверие 4) [5E71D41F] (AR v2)Трек 10 : извлечено точно (доверие 4) [0B65EE80] (AR v2)Трек 11 : извлечено точно (доверие 4) [3E643726] (AR v2)Трек 12 : извлечено точно (доверие 4) [39F5C189] (AR v2)Трек 13 : извлечено точно (доверие 4) [5A38D424] (AR v2)Трек 14 : извлечено точно (доверие 4) [B0EBCEF3] (AR v2)Трек 15 : извлечено точно (доверие 4) [FF381244] (AR v2)Трек 16 : извлечено точно (доверие 4) [EAFB10FE] (AR v2)Трек 17 : извлечено точно (доверие 3) [76EB0EB7] (AR v2)Трек 18 : извлечено точно (доверие 4) [3D303DAA] (AR v2)
Все треки извлечены точно
Конец отчёта
==== Контрольная сумма отчёта 009F1663F7F257C03873AF0ED7B5CD907A6ED3247035B8E56214FFF768490B1B ====

Лог создания рипа CD2

Exact Audio Copy V1.0 beta 3 from 29. August 2011
Отчёт EAC об извлечении, выполненном 11. февраля 2014, 18:39
Various / Terrordrome 05 - Darkside From Hell (CD2)
Дисковод: Optiarc DVD RW AD-7261S Adapter: 1 ID: 1
Режим чтения : ДостоверностьИспользование точного потока : ДаОтключение кэша аудио : ДаИспользование указателей C2 : Нет
Коррекция смещения при чтении : 48Способность читать области Lead-in и Lead-out : НетЗаполнение пропущенных сэмплов тишиной : ДаУдаление блоков с тишиной в начале и конце : НетПри вычислениях CRC использовались нулевые сэмплы : ДаИнтерфейс : Встроенный Win32-интерфейс для Win NT/2000
Выходной формат : Внутренние WAV-операцииФормат сэмплов : 44.100 Гц; 16 бит; стерео
TOC извлечённого CD
Трек | Старт | Длительность | Начальный сектор | Конечный сектор --------------------------------------------------------------------- 1 | 0:00.00 | 6:27.61 | 0 | 29085 2 | 6:27.61 | 4:43.44 | 29086 | 50354 3 | 11:11.30 | 5:32.13 | 50355 | 75267 4 | 16:43.43 | 6:22.42 | 75268 | 103959 5 | 23:06.10 | 4:37.54 | 103960 | 124788 6 | 27:43.64 | 4:20.29 | 124789 | 144317 7 | 32:04.18 | 4:57.30 | 144318 | 166622 8 | 37:01.48 | 4:49.25 | 166623 | 188322 9 | 41:50.73 | 5:42.49 | 188323 | 214021 10 | 47:33.47 | 2:33.35 | 214022 | 225531 11 | 50:07.07 | 4:39.34 | 225532 | 246490 12 | 54:46.41 | 5:22.26 | 246491 | 270666 13 | 60:08.67 | 4:28.49 | 270667 | 290815 14 | 64:37.41 | 4:38.44 | 290816 | 311709 15 | 69:16.10 | 4:34.50 | 311710 | 332309
Характеристики диапазона извлечения и сообщения об ошибках
Выбранный диапазон
Имя файла C:\Users\Meijin\Desktop\Новая папка (4)\Various - Terrordrome 05 - Darkside From Hell (CD2).wav
Пиковый уровень 98.8 % Скорость извлечения 4.5 X Качество диапазона 100.0 % CRC теста 3A160EBF CRC копии 3A160EBF Копирование... OK
Ошибок не произошло
AccurateRip: сводка
Трек 1 : извлечено точно (доверие 4) [8E2A5983] (AR v2)Трек 2 : извлечено точно (доверие 4) [A2C3A680] (AR v2)Трек 3 : извлечено точно (доверие 4) [C6CD2E85] (AR v2)Трек 4 : извлечено точно (доверие 4) [A1D2112B] (AR v2)Трек 5 : извлечено точно (доверие 4) [DD8FCDFE] (AR v2)Трек 6 : извлечено точно (доверие 3) [472A5D3A] (AR v2)Трек 7 : извлечено точно (доверие 3) [7C5B6662] (AR v2)Трек 8 : извлечено точно (доверие 3) [D362D283] (AR v2)Трек 9 : извлечено точно (доверие 3) [B032F8EB] (AR v2)Трек 10 : извлечено точно (доверие 3) [254A42F1] (AR v2)Трек 11 : извлечено точно (доверие 3) [66BEB829] (AR v2)Трек 12 : извлечено точно (доверие 3) [D7BC5B71] (AR v2)Трек 13 : извлечено точно (доверие 4) [2CC53845] (AR v2)Трек 14 : извлечено точно (доверие 3) [70AA8136] (AR v2)Трек 15 : извлечено точно (доверие 3) [FFF88463] (AR v2)
Все треки извлечены точно
Конец отчёта
==== Контрольная сумма отчёта 63CD96E76A4631C8191C6A8322D3C7F47D2CA63A8029554ABFBE392B4F516BF0 ====
Показать сообщения:    

Текущее время: 18-Окт 01:13

Часовой пояс: UTC - 1


Вы не можете начинать темы
Вы не можете отвечать на сообщения
Вы не можете редактировать свои сообщения
Вы не можете удалять свои сообщения
Вы не можете голосовать в опросах
Вы не можете прикреплять файлы к сообщениям
Вы не можете скачивать файлы

!ВНИМАНИЕ!
Сайт не предоставляет электронные версии произведений, а занимается лишь коллекционированием и каталогизацией ссылок, присылаемых и публикуемых на форуме нашими читателями. Если вы являетесь правообладателем какого-либо представленного материала и не желаете, чтобы ссылка на него находилась в нашем каталоге, свяжитесь с нами, и мы незамедлительно удалим ее. Файлы для обмена на трекере предоставлены пользователями сайта, и администрация не несет ответственности за их содержание. Просьба не заливать файлы, защищенные авторскими правами, а также файлы нелегального содержания!