Важное объявление!
У Нас Все раздачи мультитрекерные, при нуле пиров в релизах, можете смело вставать на закачку!
 
Автор Сообщение

HUNTER

Стаж:
4 года 4 месяца
Сообщений:
56808

Репутация: 101

[+] [-]
Вне форума [Профиль] [ЛС]

Demolition Part 10
Жанр: Hardcore, Gabber, Industrial
Страна-производитель диска: Netherlands
Год издания: 2008
Издатель (лейбл): The Third Movement
Номер по каталогу: T3RDM0140
Аудиокодек: FLAC (*.flac)
Тип рипа: tracks+.cue
Битрейт аудио: lossless
Продолжительность: CD1 - 1:16:57; CD2 - 1:17:31
Источник (релизер): what.cd (Demoniac), сканы - мои
Наличие сканов в содержимом раздачи: да, 600dpi PNG
Треклист:
CD1:
01. Promo - The Grower
02. Amnesys - Worldwide Crisis
03. Art Of Fighters & Endymion - Let's Get It On
04. T-Junction - Invincible
05. Peaky Pounder & Lenny Dee - Digital Crack
06. D-Passion - People Of Faith
07. N-Vitral - Boenck
08. Enzyme-X - Taboo
09. Promo & MC Drokz - TD Anthem 07
10. Hectic Fence - Backdoor Sinner
11. 3 Steps Ahead - Money In My Pocket (Promo Remix)
12. N-Vitral - Bonck
13. Hellfish - My Style
14. The DJ Producer - Problematic Frequency
15. Promo & D-Passion - Last Track Of The Night
CD2:
01. D-Passion & Mad Dog - Take The Risk
02. The Stunned Guys - Hymn (Amnesys Remix)
03. Nosferatu - Outshine Any Competition
04. D-Passion - Self-Made
05. Art Of Fighters - Hardcore Makes The World Move (Promo Remix)
06. Enzyme X - Dissonant Poetry (The Outside Agency Remix)
07. N-Vitral - Defliction
08. Alex B & T-Junction - Gangster Mentality
09. Peaky Pounder - Miekan
10. 3 Steps Ahead - Drop It (Tommyknocker & Stunned Guys Remix)
11. Fiend & Broken Rules vs. Lenny Dee - Breakya Head
12. Promo & MC Drokz - Defective Counter
13. The DJ Producer - Tension Sexuelle (Foreplay Version)
14. Hellfish - Dogfish
15. Outblast - Eksess Die Naait

Логи создания рипов

CD1

Exact Audio Copy V0.99 prebeta 5 from 4. May 2009
EAC extraction logfile from 16. November 2010, 18:02
Various artists / Demolition 10 (disc 1)
Used drive : TSSTcorpDVD+-RW TS-U633F Adapter: 0 ID: 1
Read mode : SecureUtilize accurate stream : YesDefeat audio cache : YesMake use of C2 pointers : No
Read offset correction : 6Overread into Lead-In and Lead-Out : NoFill up missing offset samples with silence : YesDelete leading and trailing silent blocks : NoNull samples used in CRC calculations : YesUsed interface : Native Win32 interface for Win NT & 2000Gap handling : Appended to previous track
Used output format : User Defined EncoderSelected bitrate : 1024 kBit/sQuality : HighAdd ID3 tag : NoCommand line compressor : C:\Program Files\FLAC\flac.exeAdditional command line options : -V -8 -T "artist=%a" -T "title=%t" -T "album=%g" -T "date=%y" -T "tracknumber=%n" -T "genre=%m" %s
TOC of the extracted CD
Track | Start | Length | Start sector | End sector --------------------------------------------------------- 1 | 0:00.00 | 7:11.16 | 0 | 32340 2 | 7:11.16 | 5:10.38 | 32341 | 55628 3 | 12:21.54 | 5:49.56 | 55629 | 81859 4 | 18:11.35 | 5:14.12 | 81860 | 105421 5 | 23:25.47 | 5:04.52 | 105422 | 128273 6 | 28:30.24 | 5:39.01 | 128274 | 153699 7 | 34:09.25 | 4:04.74 | 153700 | 172073 8 | 38:14.24 | 3:45.73 | 172074 | 189021 9 | 42:00.22 | 5:26.12 | 189022 | 213483 10 | 47:26.34 | 5:09.40 | 213484 | 236698 11 | 52:35.74 | 5:59.43 | 236699 | 263666 12 | 58:35.42 | 3:44.68 | 263667 | 280534 13 | 62:20.35 | 4:45.54 | 280535 | 301963 14 | 67:06.14 | 4:55.21 | 301964 | 324109 15 | 72:01.35 | 4:55.28 | 324110 | 346262
Track 1
Filename C:\Rips\FLAC\Various artists - Demolition 10 (disc 1) [2008]\01 Promo - The Grower.wav
Pre-gap length 0:00:02.00
Peak level 98.4 % Track quality 100.0 % Test CRC 41D193D9 Copy CRC 41D193D9 Track not present in AccurateRip database Copy OK
Track 2
Filename C:\Rips\FLAC\Various artists - Demolition 10 (disc 1) [2008]\02 Amnesys - Worldwide Crisis.wav
Peak level 98.4 % Track quality 100.0 % Test CRC 33021620 Copy CRC 33021620 Track not present in AccurateRip database Copy OK
Track 3
Filename C:\Rips\FLAC\Various artists - Demolition 10 (disc 1) [2008]\03 Art Of Fighters & Endymion - Let's Get It On.wav
Peak level 98.4 % Track quality 100.0 % Test CRC 6C6B0200 Copy CRC 6C6B0200 Track not present in AccurateRip database Copy OK
Track 4
Filename C:\Rips\FLAC\Various artists - Demolition 10 (disc 1) [2008]\04 T-junction - Invincible.wav
Peak level 98.4 % Track quality 99.9 % Test CRC 2BE163F2 Copy CRC 2BE163F2 Track not present in AccurateRip database Copy OK
Track 5
Filename C:\Rips\FLAC\Various artists - Demolition 10 (disc 1) [2008]\05 Peaky Pounder & Lenny Dee - Digital Crack.wav
Peak level 100.0 % Track quality 100.0 % Test CRC D13AB987 Copy CRC D13AB987 Track not present in AccurateRip database Copy OK
Track 6
Filename C:\Rips\FLAC\Various artists - Demolition 10 (disc 1) [2008]\06 D-Passion - People of Faith.wav
Peak level 98.4 % Track quality 99.9 % Test CRC E3003836 Copy CRC E3003836 Track not present in AccurateRip database Copy OK
Track 7
Filename C:\Rips\FLAC\Various artists - Demolition 10 (disc 1) [2008]\07 N-Vitral - Boenck.wav
Peak level 100.0 % Track quality 100.0 % Test CRC F340C63F Copy CRC F340C63F Track not present in AccurateRip database Copy OK
Track 8
Filename C:\Rips\FLAC\Various artists - Demolition 10 (disc 1) [2008]\08 Enzyme-X - Taboo.wav
Peak level 99.2 % Track quality 100.0 % Test CRC ADE884DC Copy CRC ADE884DC Track not present in AccurateRip database Copy OK
Track 9
Filename C:\Rips\FLAC\Various artists - Demolition 10 (disc 1) [2008]\09 Promo & MC Drokz - TD Anthem 07.wav
Peak level 100.0 % Track quality 100.0 % Test CRC 783D6AF6 Copy CRC 783D6AF6 Track not present in AccurateRip database Copy OK
Track 10
Filename C:\Rips\FLAC\Various artists - Demolition 10 (disc 1) [2008]\10 Hectic Fence - Backdoor Sinner.wav
Peak level 100.0 % Track quality 100.0 % Test CRC C2991316 Copy CRC C2991316 Track not present in AccurateRip database Copy OK
Track 11
Filename C:\Rips\FLAC\Various artists - Demolition 10 (disc 1) [2008]\11 3 Steps Ahead - Money in My Pocket (Promo Remix).wav
Peak level 99.5 % Track quality 100.0 % Test CRC 34084659 Copy CRC 34084659 Track not present in AccurateRip database Copy OK
Track 12
Filename C:\Rips\FLAC\Various artists - Demolition 10 (disc 1) [2008]\12 N-Vitral - Bonck.wav
Peak level 100.0 % Track quality 100.0 % Test CRC 3B530E30 Copy CRC 3B530E30 Track not present in AccurateRip database Copy OK
Track 13
Filename C:\Rips\FLAC\Various artists - Demolition 10 (disc 1) [2008]\13 Hellfish - My Style.wav
Peak level 99.6 % Track quality 100.0 % Test CRC 3811CFB5 Copy CRC 3811CFB5 Track not present in AccurateRip database Copy OK
Track 14
Filename C:\Rips\FLAC\Various artists - Demolition 10 (disc 1) [2008]\14 The DJ Producer - Problematic Frequency.wav
Peak level 100.0 % Track quality 100.0 % Test CRC 21EFEE6C Copy CRC 21EFEE6C Track not present in AccurateRip database Copy OK
Track 15
Filename C:\Rips\FLAC\Various artists - Demolition 10 (disc 1) [2008]\15 Promo & D-Passion - Last Track of the Night.wav
Peak level 99.4 % Track quality 100.0 % Test CRC 88714B9A Copy CRC 88714B9A Track not present in AccurateRip database Copy OK
None of the tracks are present in the AccurateRip database
No errors occurred
End of status report

CD2

Exact Audio Copy V0.99 prebeta 5 from 4. May 2009
EAC extraction logfile from 16. November 2010, 17:03
Various artitsts / Demolition 10 (disc 2)
Used drive : TSSTcorpDVD+-RW TS-U633F Adapter: 0 ID: 1
Read mode : SecureUtilize accurate stream : YesDefeat audio cache : YesMake use of C2 pointers : No
Read offset correction : 6Overread into Lead-In and Lead-Out : NoFill up missing offset samples with silence : YesDelete leading and trailing silent blocks : NoNull samples used in CRC calculations : YesUsed interface : Native Win32 interface for Win NT & 2000Gap handling : Appended to previous track
Used output format : User Defined EncoderSelected bitrate : 1024 kBit/sQuality : HighAdd ID3 tag : NoCommand line compressor : C:\Program Files\FLAC\flac.exeAdditional command line options : -V -8 -T "artist=%a" -T "title=%t" -T "album=%g" -T "date=%y" -T "tracknumber=%n" -T "genre=%m" %s
TOC of the extracted CD
Track | Start | Length | Start sector | End sector --------------------------------------------------------- 1 | 0:00.00 | 4:53.62 | 0 | 22036 2 | 4:53.62 | 5:29.39 | 22037 | 46750 3 | 10:23.26 | 5:30.00 | 46751 | 71500 4 | 15:53.26 | 5:11.69 | 71501 | 94894 5 | 21:05.20 | 5:51.17 | 94895 | 121236 6 | 26:56.37 | 6:19.46 | 121237 | 149707 7 | 33:16.08 | 5:07.73 | 149708 | 172805 8 | 38:24.06 | 4:10.04 | 172806 | 191559 9 | 42:34.10 | 4:21.04 | 191560 | 211138 10 | 46:55.14 | 5:31.54 | 211139 | 236017 11 | 52:26.68 | 4:42.50 | 236018 | 257217 12 | 57:09.43 | 4:12.45 | 257218 | 276162 13 | 61:22.13 | 5:54.26 | 276163 | 302738 14 | 67:16.39 | 4:52.23 | 302739 | 324661 15 | 72:08.62 | 5:21.74 | 324662 | 348810
Track 1
Filename C:\Rips\FLAC\Various artitsts - Demolition 10 (disc 2) [2008]\01 D-Passion & Mad Dog - Take the Risk.wav
Pre-gap length 0:00:02.00
Peak level 99.1 % Track quality 100.0 % Test CRC E26D2D7C Copy CRC E26D2D7C Track not present in AccurateRip database Copy OK
Track 2
Filename C:\Rips\FLAC\Various artitsts - Demolition 10 (disc 2) [2008]\02 The Stunned Guys - Hymn (Amnesys Remix).wav
Peak level 99.1 % Track quality 100.0 % Test CRC 9BCB188B Copy CRC 9BCB188B Track not present in AccurateRip database Copy OK
Track 3
Filename C:\Rips\FLAC\Various artitsts - Demolition 10 (disc 2) [2008]\03 Nosferatu - Outshine any Competition.wav
Peak level 98.7 % Track quality 100.0 % Test CRC DCD53C22 Copy CRC DCD53C22 Track not present in AccurateRip database Copy OK
Track 4
Filename C:\Rips\FLAC\Various artitsts - Demolition 10 (disc 2) [2008]\04 D-Passion - Self-Made.wav
Peak level 99.4 % Track quality 100.0 % Test CRC DE16A746 Copy CRC DE16A746 Track not present in AccurateRip database Copy OK
Track 5
Filename C:\Rips\FLAC\Various artitsts - Demolition 10 (disc 2) [2008]\05 Art Of Fighters - Hardcore Makes the World Move (Promo Remix).wav
Peak level 99.0 % Track quality 100.0 % Test CRC 491A8EFE Copy CRC 491A8EFE Track not present in AccurateRip database Copy OK
Track 6
Filename C:\Rips\FLAC\Various artitsts - Demolition 10 (disc 2) [2008]\06 Enzyme X - Dissonant Poetry (The Outside Agency Remix).wav
Peak level 99.5 % Track quality 100.0 % Test CRC 02DCC2FE Copy CRC 02DCC2FE Track not present in AccurateRip database Copy OK
Track 7
Filename C:\Rips\FLAC\Various artitsts - Demolition 10 (disc 2) [2008]\07 N-Vitral - Defliction.wav
Peak level 100.0 % Track quality 100.0 % Test CRC BC1D25F3 Copy CRC BC1D25F3 Track not present in AccurateRip database Copy OK
Track 8
Filename C:\Rips\FLAC\Various artitsts - Demolition 10 (disc 2) [2008]\08 Alex B & T-Junction - Gangster Mentality.wav
Peak level 100.0 % Track quality 99.9 % Test CRC 79F1B39F Copy CRC 79F1B39F Track not present in AccurateRip database Copy OK
Track 9
Filename C:\Rips\FLAC\Various artitsts - Demolition 10 (disc 2) [2008]\09 Peaky Pounder - Miekan.wav
Peak level 99.0 % Track quality 100.0 % Test CRC 302C0E90 Copy CRC 302C0E90 Track not present in AccurateRip database Copy OK
Track 10
Filename C:\Rips\FLAC\Various artitsts - Demolition 10 (disc 2) [2008]\10 3 Steps Ahead - Drop It (Tommyknocker & Stunned Guys Remix).wav
Peak level 99.1 % Track quality 99.9 % Test CRC E6831624 Copy CRC E6831624 Track not present in AccurateRip database Copy OK
Track 11
Filename C:\Rips\FLAC\Various artitsts - Demolition 10 (disc 2) [2008]\11 Fiend & Broken Rules vs. Lenny Dee - Breakya Head.wav
Peak level 97.1 % Track quality 100.0 % Test CRC D4108EE2 Copy CRC D4108EE2 Track not present in AccurateRip database Copy OK
Track 12
Filename C:\Rips\FLAC\Various artitsts - Demolition 10 (disc 2) [2008]\12 Promo & MC Drokz - Defective Counter.wav
Peak level 99.6 % Track quality 100.0 % Test CRC 36E4E94C Copy CRC 36E4E94C Track not present in AccurateRip database Copy OK
Track 13
Filename C:\Rips\FLAC\Various artitsts - Demolition 10 (disc 2) [2008]\13 The DJ Producer - Tension Sexuelle (Foreplay Version).wav
Peak level 99.7 % Track quality 100.0 % Test CRC CE24709C Copy CRC CE24709C Track not present in AccurateRip database Copy OK
Track 14
Filename C:\Rips\FLAC\Various artitsts - Demolition 10 (disc 2) [2008]\14 Hellfish - Dogfish.wav
Peak level 99.2 % Track quality 100.0 % Test CRC 524A1C03 Copy CRC 524A1C03 Track not present in AccurateRip database Copy OK
Track 15
Filename C:\Rips\FLAC\Various artitsts - Demolition 10 (disc 2) [2008]\15 Outblast - Eksess Die Naait.wav
Peak level 99.4 % Track quality 100.0 % Test CRC FEF04452 Copy CRC FEF04452 Track not present in AccurateRip database Copy OK
None of the tracks are present in the AccurateRip database
No errors occurred
End of status report

Содержание индексных карт (.CUE)

CD1

REM GENRE HardcoreREM DATE 2008REM DISCID C412080FREM COMMENT "ExactAudioCopy v0.99pb5"PERFORMER "Various"TITLE "Demolition Part 10 (Disc 1)"FILE "101 Promo - The Grower.flac" WAVE TRACK 01 AUDIO TITLE "The Grower" PERFORMER "Promo" INDEX 01 00:00:00FILE "102 Amnesys - Worldwide Crisis.flac" WAVE TRACK 02 AUDIO TITLE "Worldwide Crisis" PERFORMER "Amnesys" INDEX 01 00:00:00FILE "103 Art Of Fighters & Endymion - Let's Get It On.flac" WAVE TRACK 03 AUDIO TITLE "Let's Get It On" PERFORMER "Art Of Fighters & Endymion" INDEX 01 00:00:00FILE "104 T-junction - Invincible.flac" WAVE TRACK 04 AUDIO TITLE "Invincible" PERFORMER "T-junction" INDEX 01 00:00:00FILE "105 Peaky Pounder & Lenny Dee - Digital Crack.flac" WAVE TRACK 05 AUDIO TITLE "Digital Crack" PERFORMER "Peaky Pounder & Lenny Dee" INDEX 01 00:00:00FILE "106 D-Passion - People of Faith.flac" WAVE TRACK 06 AUDIO TITLE "People of Faith" PERFORMER "D-Passion" INDEX 01 00:00:00FILE "107 N-Vitral - Boenck.flac" WAVE TRACK 07 AUDIO TITLE "Boenck" PERFORMER "N-Vitral" INDEX 01 00:00:00FILE "108 Enzyme-X - Taboo.flac" WAVE TRACK 08 AUDIO TITLE "Taboo" PERFORMER "Enzyme-X" INDEX 01 00:00:00FILE "109 Promo & MC Drokz - TD Anthem 07.flac" WAVE TRACK 09 AUDIO TITLE "TD Anthem 07" PERFORMER "Promo & MC Drokz" INDEX 01 00:00:00FILE "110 Hectic Fence - Backdoor Sinner .flac" WAVE TRACK 10 AUDIO TITLE "Backdoor Sinner" PERFORMER "Hectic Fence" INDEX 01 00:00:00FILE "111 3 Steps Ahead - Money in My Pocket (Promo Remix).flac" WAVE TRACK 11 AUDIO TITLE "Money in My Pocket (Promo Remix)" PERFORMER "3 Steps Ahead" INDEX 01 00:00:00FILE "112 N-Vitral - Bonck.flac" WAVE TRACK 12 AUDIO TITLE "Bonck" PERFORMER "N-Vitral" INDEX 01 00:00:00FILE "113 Hellfish - My Style.flac" WAVE TRACK 13 AUDIO TITLE "My Style" PERFORMER "Hellfish" INDEX 01 00:00:00FILE "114 The DJ Producer - Problematic Frequency.flac" WAVE TRACK 14 AUDIO TITLE "Problematic Frequency" PERFORMER "The DJ Producer" INDEX 01 00:00:00FILE "115 Promo & D-Passion - Last Track of the Night.flac" WAVE TRACK 15 AUDIO TITLE "Last Track of the Night" PERFORMER "Promo & D-Passion" INDEX 01 00:00:00

CD2

REM GENRE HardcoreREM DATE 2008REM DISCID E5122A0FREM COMMENT "ExactAudioCopy v0.99pb5"PERFORMER "Various"TITLE "Demolition Part 10 (Disc 2)"FILE "201 D-Passion & Mad Dog - Take the Risk.flac" WAVE TRACK 01 AUDIO TITLE "Take the Risk" PERFORMER "D-Passion & Mad Dog" INDEX 01 00:00:00FILE "202 The Stunned Guys - Hymn (Amnesys Remix).flac" WAVE TRACK 02 AUDIO TITLE "Hymn (Amnesys Remix)" PERFORMER "The Stunned Guys" INDEX 01 00:00:00FILE "203 Nosferatu - Outshine any Competition.flac" WAVE TRACK 03 AUDIO TITLE "Outshine any Competition" PERFORMER "Nosferatu" INDEX 01 00:00:00FILE "204 D-Passion - Self-Made.flac" WAVE TRACK 04 AUDIO TITLE "Self-Made" PERFORMER "D-Passion" INDEX 01 00:00:00FILE "205 Art Of Fighters - Hardcore Makes the World Move (Promo Remix).flac" WAVE TRACK 05 AUDIO TITLE "Hardcore Makes the World Move (Promo Remix)" PERFORMER "Art Of Fighters" INDEX 01 00:00:00FILE "206 Enzyme X - Dissonant Poetry (The Outside Agency Remix).flac" WAVE TRACK 06 AUDIO TITLE "Dissonant Poetry (The Outside Agency Remix)" PERFORMER "Enzyme X" INDEX 01 00:00:00FILE "207 N-Vitral - Defliction.flac" WAVE TRACK 07 AUDIO TITLE "Defliction" PERFORMER "N-Vitral" INDEX 01 00:00:00FILE "208 Alex B & T-Junction - Gangster Mentality.flac" WAVE TRACK 08 AUDIO TITLE "Gangster Mentality" PERFORMER "Alex B & T-Junction" INDEX 01 00:00:00FILE "209 Peaky Pounder - Miekan.flac" WAVE TRACK 09 AUDIO TITLE "Miekan" PERFORMER "Peaky Pounder" INDEX 01 00:00:00FILE "210 3 Steps Ahead - Drop It (Tommyknocker & Stunned Guys Remix).flac" WAVE TRACK 10 AUDIO TITLE "Drop It (Tommyknocker & Stunned Guys Remix)" PERFORMER "3 Steps Ahead" INDEX 01 00:00:00FILE "211 Fiend & Broken Rules vs. Lenny Dee - Breakya Head.flac" WAVE TRACK 11 AUDIO TITLE "Breakya Head" PERFORMER "Fiend & Broken Rules vs. Lenny Dee" INDEX 01 00:00:00FILE "212 Promo & MC Drokz - Defective Counter.flac" WAVE TRACK 12 AUDIO TITLE "Defective Counter" PERFORMER "Promo & MC Drokz" INDEX 01 00:00:00FILE "213 The DJ Producer - Tension Sexuelle (Foreplay Version).flac" WAVE TRACK 13 AUDIO TITLE "Tension Sexuelle (Foreplay Version)" PERFORMER "The DJ Producer" INDEX 01 00:00:00FILE "214 Hellfish - Dogfish.flac" WAVE TRACK 14 AUDIO TITLE "Dogfish" PERFORMER "Hellfish" INDEX 01 00:00:00FILE "215 Outblast - Eksess Die Naait.flac" WAVE TRACK 15 AUDIO TITLE "Eksess Die Naait" PERFORMER "Outblast" INDEX 01 00:00:00

_________________
Показать сообщения:    

Текущее время: Сегодня 10:30

Часовой пояс: GMT



Вы не можете начинать темы
Вы не можете отвечать на сообщения
Вы не можете редактировать свои сообщения
Вы не можете удалять свои сообщения
Вы не можете голосовать в опросах
Вы не можете прикреплять файлы к сообщениям
Вы не можете скачивать файлы