Важное объявление!
У Нас Все раздачи мультитрекерные, при нуле пиров в релизах, можете смело вставать на закачку!
 
Автор Сообщение

HUNTER

Стаж:
4 года 4 месяца
Сообщений:
56822

Репутация: 101

[+] [-]
Вне форума [Профиль] [ЛС]

Technohead - Headsex (Let The Music Go)
Жанр: Hardcore, Gabber, Happy Hardcore
Носитель: CDM
Страна-производитель диска: Netherlands
Год издания: 1995
Издатель (лейбл): Mokum Records
Номер по каталогу: DB 1780 3
Страна: UK
Аудиокодек: FLAC (*.flac)
Тип рипа: tracks+.cue
Битрейт аудио: lossless
Продолжительность: 00:26:59
Источник (релизер): Собственный рип
Наличие сканов в содержимом раздачи: нет
Треклист:
01. Headsex (Electric Salmon Radio Mix) (2:51)
02. Headsex (Nanotech Mix) (4:24)
03. Headsex (Search & Destroy Mix) (5:12)
04. Headsex (Mobile Mecca Mix) (5:10)
05. Headsex (Original Mix) (4:20)
06. Headsex (Chosen Few Mix) (5:02)

Лог создания рипа

Exact Audio Copy V1.0 beta 3 from 29. August 2011
EAC extraction logfile from 16. August 2014, 14:27
Technohead / Headsex (Let The Music Go)
Used drive : ATAPI DVD A DH20A3H Adapter: 1 ID: 1
Read mode : SecureUtilize accurate stream : YesDefeat audio cache : YesMake use of C2 pointers : No
Read offset correction : 6Overread into Lead-In and Lead-Out : NoFill up missing offset samples with silence : YesDelete leading and trailing silent blocks : NoNull samples used in CRC calculations : YesUsed interface : Installed external ASPI interfaceGap handling : Appended to previous track
Used output format : User Defined EncoderSelected bitrate : 1024 kBit/sQuality : HighAdd ID3 tag : YesCommand line compressor : C:\Program Files\FLAC\flac.exeAdditional command line options : -V -8 -T "Genre=%genre%" -T "Artist=%artist%" -T "Title=%title%" -T "Album=%albumtitle%" -T "Date=%year%" -T "Tracknumber=%tracknr%" -T "Comment=%comment%" %source%
TOC of the extracted CD
Track | Start | Length | Start sector | End sector --------------------------------------------------------- 1 | 0:00.32 | 2:51.30 | 32 | 12886 2 | 2:51.62 | 4:24.00 | 12887 | 32686 3 | 7:15.62 | 5:12.08 | 32687 | 56094 4 | 12:27.70 | 5:10.00 | 56095 | 79344 5 | 17:37.70 | 4:20.22 | 79345 | 98866 6 | 21:58.17 | 5:02.65 | 98867 | 121581
Track 1
Filename C:\Мои раздачи\Technohead\Singles\1995 - Headsex (Let The Music Go) CDM\01 - Headsex (Electric Salmon Radio Mix).wav
Pre-gap length 0:00:02.32
Peak level 98.3 % Extraction speed 4.6 X Track quality 100.0 % Test CRC 867A3DE1 Copy CRC 867A3DE1 Accurately ripped (confidence 1) [AC12739E] (AR v1) Copy OK
Track 2
Filename C:\Мои раздачи\Technohead\Singles\1995 - Headsex (Let The Music Go) CDM\02 - Headsex (Nanotech Mix).wav
Pre-gap length 0:00:01.22
Peak level 98.5 % Extraction speed 5.6 X Track quality 100.0 % Test CRC 6DF1FB98 Copy CRC 6DF1FB98 Accurately ripped (confidence 1) [01363B2C] (AR v1) Copy OK
Track 3
Filename C:\Мои раздачи\Technohead\Singles\1995 - Headsex (Let The Music Go) CDM\03 - Headsex (Search & Destroy Mix).wav
Pre-gap length 0:00:01.47
Peak level 98.4 % Extraction speed 6.2 X Track quality 100.0 % Test CRC FE41B887 Copy CRC FE41B887 Accurately ripped (confidence 1) [500627BA] (AR v1) Copy OK
Track 4
Filename C:\Мои раздачи\Technohead\Singles\1995 - Headsex (Let The Music Go) CDM\04 - Headsex (Mobile Mecca Mix).wav
Pre-gap length 0:00:01.03
Peak level 98.3 % Extraction speed 6.8 X Track quality 100.0 % Test CRC 8EB4F52D Copy CRC 8EB4F52D Accurately ripped (confidence 1) [84B30DF8] (AR v1) Copy OK
Track 5
Filename C:\Мои раздачи\Technohead\Singles\1995 - Headsex (Let The Music Go) CDM\05 - Headsex (Original Mix).wav
Pre-gap length 0:00:01.05
Peak level 83.7 % Extraction speed 6.4 X Track quality 99.9 % Test CRC DFFA83AF Copy CRC DFFA83AF Accurately ripped (confidence 1) [B9CFCA74] (AR v1) Copy OK
Track 6
Filename C:\Мои раздачи\Technohead\Singles\1995 - Headsex (Let The Music Go) CDM\06 - Headsex (Chosen Few Mix).wav
Pre-gap length 0:00:01.10
Peak level 98.2 % Extraction speed 7.8 X Track quality 100.0 % Test CRC 6EF87A8B Copy CRC 6EF87A8B Accurately ripped (confidence 1) [120139F0] (AR v1) Copy OK
All tracks accurately ripped
No errors occurred
End of status report
==== Log checksum D342B3D00257233BE7F9729589F1971DBDBD6AB196D03321D237769948DFB933 ====

Содержание индексной карты (.CUE)

REM GENRE TechnoREM DATE 1995REM DISCID 44065506REM COMMENT "ExactAudioCopy v1.0b3"CATALOG 0000000000000PERFORMER "Technohead"TITLE "Headsex (Let The Music Go)"FILE "01 - Headsex (Electric Salmon Radio Mix).wav" WAVE TRACK 01 AUDIO TITLE "Headsex (Electric Salmon Radio Mix)" PERFORMER "Technohead" ISRC Cg`[29512570 PREGAP 00:00:32 INDEX 01 00:00:00 TRACK 02 AUDIO TITLE "Headsex (Nanotech Mix)" PERFORMER "Technohead" ISRC Cg`[29512580 INDEX 00 02:50:08FILE "02 - Headsex (Nanotech Mix).wav" WAVE INDEX 01 00:00:00 TRACK 03 AUDIO TITLE "Headsex (Search & Destroy Mix)" PERFORMER "Technohead" ISRC Cg`[29512590 INDEX 00 04:22:28FILE "03 - Headsex (Search & Destroy Mix).wav" WAVE INDEX 01 00:00:00 TRACK 04 AUDIO TITLE "Headsex (Mobile Mecca Mix)" PERFORMER "Technohead" ISRC Cg`[29512600 INDEX 00 05:11:05FILE "04 - Headsex (Mobile Mecca Mix).wav" WAVE INDEX 01 00:00:00 TRACK 05 AUDIO TITLE "Headsex (Original Mix)" PERFORMER "Technohead" ISRC Cg`[29512610 INDEX 00 05:08:70FILE "05 - Headsex (Original Mix).wav" WAVE INDEX 01 00:00:00 TRACK 06 AUDIO TITLE "Headsex (Chosen Few Mix)" PERFORMER "Technohead" ISRC Cg`[29512620 INDEX 00 04:19:12FILE "06 - Headsex (Chosen Few Mix).wav" WAVE INDEX 01 00:00:00

Зазоры


_________________
Показать сообщения:    

Текущее время: Сегодня 05:52

Часовой пояс: GMT



Вы не можете начинать темы
Вы не можете отвечать на сообщения
Вы не можете редактировать свои сообщения
Вы не можете удалять свои сообщения
Вы не можете голосовать в опросах
Вы не можете прикреплять файлы к сообщениям
Вы не можете скачивать файлы