Важное объявление!
У Нас Все раздачи мультитрекерные, при нуле пиров в релизах, можете смело вставать на закачку!
Статистика раздачи
Размер:     |    Зарегистрирован:     |    Скачан:     |   
Нет
 
     
 
 
Автор Сообщение

HUNTER

Стаж:
5 лет 1 месяц
Сообщений:
68439

Репутация: 101

[+] [-]
Вне форума [Профиль] [ЛС]

Hardcore Generation III
Жанр: Hardcore, Gabber, Happy Hardcore
Носитель: CD
Год издания: 1997
Издатель (лейбл): MECADO
Номер по каталогу: MEC 10057
Аудиокодек: FLAC (*.flac)
Тип рипа: tracks+.cue
Битрейт аудио: lossless
Продолжительность: 01:53:28
Источник (релизер): what.cd
Наличие сканов в содержимом раздачи: нет
Треклист:
CD 1
01. Chosen Few - The Name Of The DJ (Buzz-Fuzz Remix) [03:38]
02. Dominium - Let Your Mind (Bass Mix) [03:13]
03. Ruffian - Pump This Party [04:12]
04. Rotterdam Terror Corps - The Horror [04:59]
05. Bass-D & King Matthew - Damn The Dee-Jay ('97 Remix) [03:13]
06. Flip - Explode It (The Killer Mix) [03:44]
07. Mastermind - Dance For Me [03:36]
08. Necromancers - Enlightning Of The Darkness [04:23]
09. Omar Santana - Step The Fuck Back (DJ Paul Mix) [03:34]
10. DJ Vince - V-Ruz [04:43]
11. Champ-E-On - The Party Is Burning [03:20]
12. Shadowlands Terrorists - Useless Shit [04:05]
13. 3 Da Hard Way - Overdose [04:06]
14. Heardhead - Gabbaman [03:55]
15. J.D.A. & Delta Nine - Real Hardcore En Anders Niks (Cencored Version) [04:08]
16. Frank-E & Mars-L - Aeon [04:31]
17. Archatos - The Strength Of Unity [03:31]
18. DJ Dano - Fukem All (Driveby Mix) [04:07]
19. Highlander - Get Them Move On [03:36]
20. Ortni - Center Of Life [03:14]
CD 2
01. Spooky Mooky - Intro: Pump Your Veins [00:56]
02. Megatron - Terrorizing [01:25]
03. DJ Vince - V-Ruz [01:29]
04. DJ Dano & Z'EV - The Bottomline [01:14]
05. Ruffian - Here We Go Again [01:08]
06. Dominium - Let Your Mind (Bass Mix) [01:40]
07. Party Animals - Roodkapje [01:31]
08. Ortni - Center Of Life [01:31]
09. Rotterdam Terror Corps - The Horror [01:41]
10. Rotterdam Terror Corps - We Declare War [01:36]
11. Gabbers United - I Still Have Extasy [01:23]
12. Flip - Explode It (The Killer Mix) [01:14]
13. MC Ammo & DJ Agonizer - Put The Music On [01:33]
14. Spooky Mooky - Middle Thrill: Enter The Dragon [00:31]
15. J.D.A. - Voel Je Die Bass [01:24]
16. Trashcanman - Sex, Drugs & Rock 'N Roll [01:33]
17. Crypt - The 9th Circle [01:33]
18. 3 Da Hard Way - Overdose [01:42]
19. The Lawyer - Yo DJ (Buzz Fuzz Remix) [01:22]
20. Chosen Few - The Name Of The DJ [01:44]
21. Archatos - The Strength Of Unity [01:33]
22. DJ Dano - Fukem All (Driveby Mix) [01:21]
23. Shadowlands Terrorists - Shadowlands Anthem [01:38]
24. J.D.A. & Delta Nine - Real Hardcore En Anders Niks (Censored Version) [01:40]
25. Spooky Mooky - Outtro: Meditate [00:57]

logs and sheets

Log EAC CD 1
Exact Audio Copy V1.0 beta 3 from 29. August 2011
EAC extraction logfile from 1. September 2014, 17:07
Various Artists / Hardcore Generation III - CD1
Used drive : Optiarc DVD RW AD-5240S Adapter: 3 ID: 0
Read mode : SecureUtilize accurate stream : YesDefeat audio cache : YesMake use of C2 pointers : No
Read offset correction : 48Overread into Lead-In and Lead-Out : NoFill up missing offset samples with silence : YesDelete leading and trailing silent blocks : NoNull samples used in CRC calculations : YesUsed interface : Native Win32 interface for Win NT & 2000Gap handling : Appended to previous track
Used output format : User Defined EncoderSelected bitrate : 128 kBit/sQuality : HighAdd ID3 tag : NoCommand line compressor : D:\iROpack\FLAC\flac.exeAdditional command line options : -8 -V -T "ARTIST=%artist%" -T "TITLE=%title%" -T "ALBUM=%albumtitle%" -T "DATE=%year%" -T "TRACKNUMBER=%tracknr%" -T "GENRE=%genre%" %source% -o %dest%
TOC of the extracted CD
Track | Start | Length | Start sector | End sector --------------------------------------------------------- 1 | 0:00.33 | 3:38.30 | 33 | 16412 2 | 3:38.63 | 3:13.07 | 16413 | 30894 3 | 6:51.70 | 4:12.50 | 30895 | 49844 4 | 11:04.45 | 4:59.33 | 49845 | 72302 5 | 16:04.03 | 3:13.25 | 72303 | 86802 6 | 19:17.28 | 3:44.50 | 86803 | 103652 7 | 23:02.03 | 3:36.15 | 103653 | 119867 8 | 26:38.18 | 4:23.37 | 119868 | 139629 9 | 31:01.55 | 3:34.50 | 139630 | 155729 10 | 34:36.30 | 4:43.23 | 155730 | 176977 11 | 39:19.53 | 3:20.57 | 176978 | 192034 12 | 42:40.35 | 4:05.53 | 192035 | 210462 13 | 46:46.13 | 4:06.00 | 210463 | 228912 14 | 50:52.13 | 3:55.45 | 228913 | 246582 15 | 54:47.58 | 4:08.65 | 246583 | 265247 16 | 58:56.48 | 4:31.70 | 265248 | 285642 17 | 63:28.43 | 3:31.40 | 285643 | 301507 18 | 67:00.08 | 4:07.35 | 301508 | 320067 19 | 71:07.43 | 3:36.07 | 320068 | 336274 20 | 74:43.50 | 3:14.25 | 336275 | 350849
Track 1
Filename R:\iRO\Rip\Hardcore Generation III\CD1\01-Chosen_Few-The_Name_Of_The_D.J._(Buzz-Fuzz_Remix).wav
Pre-gap length 0:00:02.33
Peak level 83.4 % Extraction speed 2.3 X Track quality 100.0 % Test CRC 012D84FC Copy CRC 012D84FC Accurately ripped (confidence 1) [82FCFFA1] (AR v2) Copy OK
Track 2
Filename R:\iRO\Rip\Hardcore Generation III\CD1\02-Dominium-Let_Your_Mind_(Bass_Mix).wav
Peak level 96.9 % Extraction speed 2.5 X Track quality 100.0 % Test CRC F5A68084 Copy CRC F5A68084 Accurately ripped (confidence 1) [54EBFC5B] (AR v2) Copy OK
Track 3
Filename R:\iRO\Rip\Hardcore Generation III\CD1\03-Ruffian-Pump_This_Party.wav
Peak level 96.9 % Extraction speed 2.6 X Track quality 99.9 % Test CRC C68F79DC Copy CRC C68F79DC Accurately ripped (confidence 1) [731DEA32] (AR v2) Copy OK
Track 4
Filename R:\iRO\Rip\Hardcore Generation III\CD1\04-Rotterdam_Terror_Corps-The_Horror.wav
Peak level 78.5 % Extraction speed 2.8 X Track quality 99.9 % Test CRC D7F69246 Copy CRC D7F69246 Accurately ripped (confidence 1) [E229606F] (AR v2) Copy OK
Track 5
Filename R:\iRO\Rip\Hardcore Generation III\CD1\05-Bass-D_&_King_Matthew-Damn_The_Dee-Jay_'97_Remix.wav
Peak level 96.9 % Extraction speed 3.2 X Track quality 100.0 % Test CRC 4B183A56 Copy CRC 4B183A56 Accurately ripped (confidence 1) [F6D08155] (AR v2) Copy OK
Track 6
Filename R:\iRO\Rip\Hardcore Generation III\CD1\06-Flip-Explode_It_(The_Killer_Mix).wav
Peak level 86.4 % Extraction speed 3.4 X Track quality 100.0 % Test CRC 153E03D4 Copy CRC 153E03D4 Accurately ripped (confidence 1) [D4DE110D] (AR v2) Copy OK
Track 7
Filename R:\iRO\Rip\Hardcore Generation III\CD1\07-Mastermind-Dance_For_Me.wav
Peak level 96.9 % Extraction speed 3.6 X Track quality 100.0 % Test CRC 81D96BB7 Copy CRC 81D96BB7 Accurately ripped (confidence 1) [EF52061D] (AR v2) Copy OK
Track 8
Filename R:\iRO\Rip\Hardcore Generation III\CD1\08-Necromancers-Enlightning_Of_The_Darkness.wav
Peak level 95.6 % Extraction speed 3.8 X Track quality 100.0 % Test CRC 4B80C813 Copy CRC 4B80C813 Accurately ripped (confidence 1) [2FF2C491] (AR v2) Copy OK
Track 9
Filename R:\iRO\Rip\Hardcore Generation III\CD1\09-Omar_Santana-Step_The_Fuk_Back_(DJ_Paul_Mix).wav
Peak level 96.9 % Extraction speed 3.9 X Track quality 100.0 % Test CRC ED20D0BC Copy CRC ED20D0BC Accurately ripped (confidence 1) [9B8C8FC6] (AR v2) Copy OK
Track 10
Filename R:\iRO\Rip\Hardcore Generation III\CD1\10-D.J._Vince-V-Ruz.wav
Peak level 96.9 % Extraction speed 4.2 X Track quality 100.0 % Test CRC 346C96D1 Copy CRC 346C96D1 Accurately ripped (confidence 1) [2EF0B4EE] (AR v2) Copy OK
Track 11
Filename R:\iRO\Rip\Hardcore Generation III\CD1\11-Champ-E-On-The_Party_Is_Burning.wav
Peak level 96.9 % Extraction speed 4.1 X Track quality 100.0 % Test CRC D4D5FF11 Copy CRC D4D5FF11 Accurately ripped (confidence 1) [23A39DA8] (AR v2) Copy OK
Track 12
Filename R:\iRO\Rip\Hardcore Generation III\CD1\12-Shadowlands_Terrorists-Useless_Shit.wav
Peak level 96.9 % Extraction speed 4.5 X Track quality 100.0 % Test CRC E0415853 Copy CRC E0415853 Accurately ripped (confidence 1) [99A43E5B] (AR v2) Copy OK
Track 13
Filename R:\iRO\Rip\Hardcore Generation III\CD1\13-3_Da_Hard_Way-Overdose.wav
Peak level 96.9 % Extraction speed 4.0 X Track quality 99.9 % Test CRC 0534EB5A Copy CRC 0534EB5A Accurately ripped (confidence 1) [5D678DB7] (AR v2) Copy OK
Track 14
Filename R:\iRO\Rip\Hardcore Generation III\CD1\14-Heardhead-Gabbaman.wav
Peak level 96.9 % Extraction speed 4.7 X Track quality 100.0 % Test CRC 1E07B22F Copy CRC 1E07B22F Accurately ripped (confidence 1) [97960CC2] (AR v2) Copy OK
Track 15
Filename R:\iRO\Rip\Hardcore Generation III\CD1\15-J.D.A._&_Delta_Nine-Real_Hardcore_En_Anders_Niks_(Cencored_Version).wav
Peak level 80.8 % Extraction speed 4.8 X Track quality 100.0 % Test CRC 52686D97 Copy CRC 52686D97 Accurately ripped (confidence 1) [2DCD5BD6] (AR v2) Copy OK
Track 16
Filename R:\iRO\Rip\Hardcore Generation III\CD1\16-Frank-E_&_Mars-L-Aeon.wav
Peak level 96.9 % Extraction speed 4.5 X Track quality 99.9 % Test CRC F099B8FB Copy CRC F099B8FB Accurately ripped (confidence 1) [D9683E9A] (AR v2) Copy OK
Track 17
Filename R:\iRO\Rip\Hardcore Generation III\CD1\17-Archatos-The_Strength_Of_Unity.wav
Peak level 96.9 % Extraction speed 5.0 X Track quality 100.0 % Test CRC 32A5657A Copy CRC 32A5657A Accurately ripped (confidence 1) [61A43FF7] (AR v2) Copy OK
Track 18
Filename R:\iRO\Rip\Hardcore Generation III\CD1\18-D.J._Dano-Fukem_All_(Driveby_Mix).wav
Peak level 96.9 % Extraction speed 5.2 X Track quality 100.0 % Test CRC C557DAF6 Copy CRC C557DAF6 Accurately ripped (confidence 1) [351DDE25] (AR v2) Copy OK
Track 19
Filename R:\iRO\Rip\Hardcore Generation III\CD1\19-Highlander-Get_Them_Move_On.wav
Peak level 96.9 % Extraction speed 4.5 X Track quality 99.9 % Test CRC 07F3A3E0 Copy CRC 07F3A3E0 Accurately ripped (confidence 1) [8EDE1E4A] (AR v2) Copy OK
Track 20
Filename R:\iRO\Rip\Hardcore Generation III\CD1\20-Ortni-Center_Of_Life.wav
Peak level 95.2 % Extraction speed 5.2 X Track quality 100.0 % Test CRC AC18DED0 Copy CRC AC18DED0 Accurately ripped (confidence 1) [ED71BCA4] (AR v2) Copy OK
All tracks accurately ripped
No errors occurred
End of status report
==== Log checksum 5F026235EEF4AC6921026ABB146154C34A18C9318055539A9742F83AB7FD459A ====

cue CD 1

REM GENRE HardcoreREM DATE 1997REM DISCID 20124614REM COMMENT "ExactAudioCopy v1.0b3"FILE "01-Chosen_Few-The_Name_Of_The_D.J._(Buzz-Fuzz_Remix).wav" WAVE TRACK 01 AUDIO PREGAP 00:00:33 INDEX 01 00:00:00FILE "02-Dominium-Let_Your_Mind_(Bass_Mix).wav" WAVE TRACK 02 AUDIO INDEX 01 00:00:00FILE "03-Ruffian-Pump_This_Party.wav" WAVE TRACK 03 AUDIO INDEX 01 00:00:00FILE "04-Rotterdam_Terror_Corps-The_Horror.wav" WAVE TRACK 04 AUDIO INDEX 01 00:00:00FILE "05-Bass-D_&_King_Matthew-Damn_The_Dee-Jay_'97_Remix.wav" WAVE TRACK 05 AUDIO INDEX 01 00:00:00FILE "06-Flip-Explode_It_(The_Killer_Mix).wav" WAVE TRACK 06 AUDIO INDEX 01 00:00:00FILE "07-Mastermind-Dance_For_Me.wav" WAVE TRACK 07 AUDIO INDEX 01 00:00:00FILE "08-Necromancers-Enlightning_Of_The_Darkness.wav" WAVE TRACK 08 AUDIO INDEX 01 00:00:00FILE "09-Omar_Santana-Step_The_Fuk_Back_(DJ_Paul_Mix).wav" WAVE TRACK 09 AUDIO INDEX 01 00:00:00FILE "10-D.J._Vince-V-Ruz.wav" WAVE TRACK 10 AUDIO INDEX 01 00:00:00FILE "11-Champ-E-On-The_Party_Is_Burning.wav" WAVE TRACK 11 AUDIO INDEX 01 00:00:00FILE "12-Shadowlands_Terrorists-Useless_Shit.wav" WAVE TRACK 12 AUDIO INDEX 01 00:00:00FILE "13-3_Da_Hard_Way-Overdose.wav" WAVE TRACK 13 AUDIO INDEX 01 00:00:00FILE "14-Heardhead-Gabbaman.wav" WAVE TRACK 14 AUDIO INDEX 01 00:00:00FILE "15-J.D.A._&_Delta_Nine-Real_Hardcore_En_Anders_Niks_(Cencored_Version).wav" WAVE TRACK 15 AUDIO INDEX 01 00:00:00FILE "16-Frank-E_&_Mars-L-Aeon.wav" WAVE TRACK 16 AUDIO INDEX 01 00:00:00FILE "17-Archatos-The_Strength_Of_Unity.wav" WAVE TRACK 17 AUDIO INDEX 01 00:00:00FILE "18-D.J._Dano-Fukem_All_(Driveby_Mix).wav" WAVE TRACK 18 AUDIO INDEX 01 00:00:00FILE "19-Highlander-Get_Them_Move_On.wav" WAVE TRACK 19 AUDIO INDEX 01 00:00:00FILE "20-Ortni-Center_Of_Life.wav" WAVE TRACK 20 AUDIO INDEX 01 00:00:00

Log EAC CD 2

Exact Audio Copy V1.0 beta 3 from 29. August 2011
EAC extraction logfile from 1. September 2014, 17:40
Various Artists / Hardcore Generation III - CD2
Used drive : Optiarc DVD RW AD-5240S Adapter: 3 ID: 0
Read mode : SecureUtilize accurate stream : YesDefeat audio cache : YesMake use of C2 pointers : No
Read offset correction : 48Overread into Lead-In and Lead-Out : NoFill up missing offset samples with silence : YesDelete leading and trailing silent blocks : NoNull samples used in CRC calculations : YesUsed interface : Native Win32 interface for Win NT & 2000Gap handling : Appended to previous track
Used output format : User Defined EncoderSelected bitrate : 128 kBit/sQuality : HighAdd ID3 tag : NoCommand line compressor : D:\iROpack\FLAC\flac.exeAdditional command line options : -8 -V -T "ARTIST=%artist%" -T "TITLE=%title%" -T "ALBUM=%albumtitle%" -T "DATE=%year%" -T "TRACKNUMBER=%tracknr%" -T "GENRE=%genre%" %source% -o %dest%
TOC of the extracted CD
Track | Start | Length | Start sector | End sector --------------------------------------------------------- 1 | 0:00.00 | 0:56.40 | 0 | 4239 2 | 0:56.40 | 1:25.60 | 4240 | 10674 3 | 2:22.25 | 1:29.05 | 10675 | 17354 4 | 3:51.30 | 1:14.27 | 17355 | 22931 5 | 5:05.57 | 1:08.23 | 22932 | 28054 6 | 6:14.05 | 1:40.35 | 28055 | 35589 7 | 7:54.40 | 1:31.37 | 35590 | 42451 8 | 9:26.02 | 1:31.25 | 42452 | 49301 9 | 10:57.27 | 1:41.48 | 49302 | 56924 10 | 12:39.00 | 1:36.07 | 56925 | 64131 11 | 14:15.07 | 1:23.63 | 64132 | 70419 12 | 15:38.70 | 1:14.55 | 70420 | 76024 13 | 16:53.50 | 1:33.67 | 76025 | 83066 14 | 18:27.42 | 0:31.25 | 83067 | 85416 15 | 18:58.67 | 1:24.55 | 85417 | 91771 16 | 20:23.47 | 1:33.33 | 91772 | 98779 17 | 21:57.05 | 1:33.65 | 98780 | 105819 18 | 23:30.70 | 1:42.20 | 105820 | 113489 19 | 25:13.15 | 1:22.07 | 113490 | 119646 20 | 26:35.22 | 1:44.23 | 119647 | 127469 21 | 28:19.45 | 1:33.30 | 127470 | 134474 22 | 29:53.00 | 1:21.00 | 134475 | 140549 23 | 31:14.00 | 1:38.02 | 140550 | 147901 24 | 32:52.02 | 1:40.63 | 147902 | 155464 25 | 34:32.65 | 0:57.70 | 155465 | 159809
Track 1
Filename R:\iRO\Rip\Hardcore Generation III\CD2\01-Spooky_Mooky-Intro-_Pump_your_veins.wav
Pre-gap length 0:00:02.00
Peak level 46.8 % Extraction speed 1.5 X Track quality 100.0 % Test CRC ADEF135B Copy CRC ADEF135B Accurately ripped (confidence 1) [B1ECE86E] (AR v2) Copy OK
Track 2
Filename R:\iRO\Rip\Hardcore Generation III\CD2\02-Megatron-Terrorizing.wav
Peak level 83.7 % Extraction speed 1.8 X Track quality 100.0 % Test CRC 0D6D6DB3 Copy CRC 0D6D6DB3 Accurately ripped (confidence 1) [B29F95D9] (AR v2) Copy OK
Track 3
Filename R:\iRO\Rip\Hardcore Generation III\CD2\03-D.J._Vince-V-Ruz.wav
Peak level 86.8 % Extraction speed 1.9 X Track quality 100.0 % Test CRC DF0577E2 Copy CRC DF0577E2 Accurately ripped (confidence 1) [A160AF44] (AR v2) Copy OK
Track 4
Filename R:\iRO\Rip\Hardcore Generation III\CD2\04-DJ_Dano_&_Z'ev-The_Bottomline.wav
Peak level 84.4 % Extraction speed 1.4 X Track quality 99.8 % Test CRC D9BD7009 Copy CRC D9BD7009 Accurately ripped (confidence 1) [1AA3BC28] (AR v2) Copy OK
Track 5
Filename R:\iRO\Rip\Hardcore Generation III\CD2\05-Ruffian-Here_We_Go_Again.wav
Peak level 82.5 % Extraction speed 1.8 X Track quality 100.0 % Test CRC 0BC4B111 Copy CRC 0BC4B111 Accurately ripped (confidence 1) [B46DB307] (AR v2) Copy OK
Track 6
Filename R:\iRO\Rip\Hardcore Generation III\CD2\06-Dominium-Let_Your_Mind_(bass_mix)_(old_style_favourite).wav
Peak level 85.8 % Extraction speed 2.1 X Track quality 100.0 % Test CRC 090C8787 Copy CRC 090C8787 Accurately ripped (confidence 1) [765231FA] (AR v2) Copy OK
Track 7
Filename R:\iRO\Rip\Hardcore Generation III\CD2\07-Party_Animals-Roodkapje.wav
Peak level 93.4 % Extraction speed 2.2 X Track quality 100.0 % Test CRC DBA187EC Copy CRC DBA187EC Accurately ripped (confidence 1) [F7F211EA] (AR v2) Copy OK
Track 8
Filename R:\iRO\Rip\Hardcore Generation III\CD2\08-Ortni-Center_Of_Life.wav
Peak level 99.9 % Extraction speed 2.2 X Track quality 100.0 % Test CRC A01B0A47 Copy CRC A01B0A47 Accurately ripped (confidence 1) [AF8080CD] (AR v2) Copy OK
Track 9
Filename R:\iRO\Rip\Hardcore Generation III\CD2\09-Rotterdam_Terror_Corps-The_Horror.wav
Peak level 100.0 % Extraction speed 2.4 X Track quality 100.0 % Test CRC 3B0ACCE6 Copy CRC 3B0ACCE6 Accurately ripped (confidence 1) [8C08CB81] (AR v2) Copy OK
Track 10
Filename R:\iRO\Rip\Hardcore Generation III\CD2\10-Rotterdam_Terror_Corps-We_Declare_War.wav
Peak level 94.6 % Extraction speed 2.4 X Track quality 100.0 % Test CRC AEB95478 Copy CRC AEB95478 Accurately ripped (confidence 1) [AD6DF1AD] (AR v2) Copy OK
Track 11
Filename R:\iRO\Rip\Hardcore Generation III\CD2\11-Gabbers_United-I_Still_Have_Extasy.wav
Peak level 88.2 % Extraction speed 2.4 X Track quality 100.0 % Test CRC 6997CE6D Copy CRC 6997CE6D Accurately ripped (confidence 1) [C9346822] (AR v2) Copy OK
Track 12
Filename R:\iRO\Rip\Hardcore Generation III\CD2\12-Flip-Explode_It_(the_killer_mix).wav
Peak level 98.5 % Extraction speed 2.3 X Track quality 100.0 % Test CRC 443E5EEF Copy CRC 443E5EEF Accurately ripped (confidence 1) [11CF1B65] (AR v2) Copy OK
Track 13
Filename R:\iRO\Rip\Hardcore Generation III\CD2\13-MC_Ammo_&_DJ_Agonizer-Put_The_Music_On.wav
Peak level 90.7 % Extraction speed 2.5 X Track quality 100.0 % Test CRC 87F8EC7B Copy CRC 87F8EC7B Accurately ripped (confidence 1) [67073A79] (AR v2) Copy OK
Track 14
Filename R:\iRO\Rip\Hardcore Generation III\CD2\14-Spooky_Mooky-Middle_Thrill-_Enter_The_Dragon.wav
Peak level 70.2 % Extraction speed 1.7 X Track quality 100.0 % Test CRC 2038F044 Copy CRC 2038F044 Accurately ripped (confidence 1) [0F597094] (AR v2) Copy OK
Track 15
Filename R:\iRO\Rip\Hardcore Generation III\CD2\15-J.D.A.-Voel_Je_Die_Bass.wav
Peak level 85.6 % Extraction speed 2.6 X Track quality 100.0 % Test CRC B4D7B9A0 Copy CRC B4D7B9A0 Accurately ripped (confidence 1) [4E2B7F2B] (AR v2) Copy OK
Track 16
Filename R:\iRO\Rip\Hardcore Generation III\CD2\16-Trashcanman-Sex,_Drugs_&_Rock_'N_Roll.wav
Peak level 91.0 % Extraction speed 2.7 X Track quality 100.0 % Test CRC C6FCF996 Copy CRC C6FCF996 Accurately ripped (confidence 1) [D3C49D9B] (AR v2) Copy OK
Track 17
Filename R:\iRO\Rip\Hardcore Generation III\CD2\17-Crypt-The_9th_Circle.wav
Peak level 91.2 % Extraction speed 2.7 X Track quality 100.0 % Test CRC D36E8C31 Copy CRC D36E8C31 Accurately ripped (confidence 1) [EAAE2CA4] (AR v2) Copy OK
Track 18
Filename R:\iRO\Rip\Hardcore Generation III\CD2\18-3_Da_Hard_Way-Overdose.wav
Peak level 92.9 % Extraction speed 2.3 X Track quality 99.8 % Test CRC 67D70AD5 Copy CRC 67D70AD5 Accurately ripped (confidence 1) [2AB4D4D3] (AR v2) Copy OK
Track 19
Filename R:\iRO\Rip\Hardcore Generation III\CD2\19-The_Lawyer-Yo_Dj_(Buzz_Fuzz_Remix).wav
Peak level 90.4 % Extraction speed 2.8 X Track quality 100.0 % Test CRC 6A385365 Copy CRC 6A385365 Accurately ripped (confidence 1) [4BD38FFC] (AR v2) Copy OK
Track 20
Filename R:\iRO\Rip\Hardcore Generation III\CD2\20-Chosen_Few-The_Name_Of_The_D.J..wav
Peak level 95.8 % Extraction speed 3.1 X Track quality 100.0 % Test CRC 63177157 Copy CRC 63177157 Accurately ripped (confidence 1) [B44D980A] (AR v2) Copy OK
Track 21
Filename R:\iRO\Rip\Hardcore Generation III\CD2\21-Archatos-The_Strength_Of_Unity.wav
Peak level 96.8 % Extraction speed 3.0 X Track quality 100.0 % Test CRC 225623E3 Copy CRC 225623E3 Accurately ripped (confidence 1) [6E48EBD4] (AR v2) Copy OK
Track 22
Filename R:\iRO\Rip\Hardcore Generation III\CD2\22-D.J._Dano-Fukem_All_(driveby_mix).wav
Peak level 90.4 % Extraction speed 2.2 X Track quality 99.8 % Test CRC 6269136D Copy CRC 6269136D Accurately ripped (confidence 1) [3F226E4D] (AR v2) Copy OK
Track 23
Filename R:\iRO\Rip\Hardcore Generation III\CD2\23-Shadowlands_Terrorists-Shadowlands_Anthem.wav
Peak level 88.0 % Extraction speed 3.2 X Track quality 100.0 % Test CRC C86411C9 Copy CRC C86411C9 Accurately ripped (confidence 1) [2715DC9E] (AR v2) Copy OK
Track 24
Filename R:\iRO\Rip\Hardcore Generation III\CD2\24-J.D.A._&_Delta_Nine-Real_Hardcore_En_Anders_Niks_(censored_version).wav
Peak level 87.2 % Extraction speed 3.1 X Track quality 100.0 % Test CRC 2F6D0351 Copy CRC 2F6D0351 Accurately ripped (confidence 1) [A91195B7] (AR v2) Copy OK
Track 25
Filename R:\iRO\Rip\Hardcore Generation III\CD2\25-Spooky_Mooky-Outtro-_Meditate.wav
Peak level 84.1 % Extraction speed 2.7 X Track quality 100.0 % Test CRC 7260549A Copy CRC 7260549A Accurately ripped (confidence 1) [92766414] (AR v2) Copy OK
All tracks accurately ripped
No errors occurred
End of status report
---- CUETools DB Plugin V2.1.3
[CTDB TOCID: pKl2mLXNkFAKy49DyE55Un6WxUo-] found, Submit result: pKl2mLXNkFAKy49DyE55Un6WxUo- has been confirmed[427132db] (2/2) Accurately ripped
==== Log checksum 612E1D002AC47D4777438DA5467051795D57AAAE1AC0E90D78267F6AB086FD66 ====

cue CD 2

REM GENRE HardcoreREM DATE 1997REM DISCID 53085219REM COMMENT "ExactAudioCopy v1.0b3"FILE "01-Spooky_Mooky-Intro-_Pump_your_veins.wav" WAVE TRACK 01 AUDIO INDEX 01 00:00:00FILE "02-Megatron-Terrorizing.wav" WAVE TRACK 02 AUDIO INDEX 01 00:00:00FILE "03-D.J._Vince-V-Ruz.wav" WAVE TRACK 03 AUDIO INDEX 01 00:00:00FILE "04-DJ_Dano_&_Z'ev-The_Bottomline.wav" WAVE TRACK 04 AUDIO INDEX 01 00:00:00FILE "05-Ruffian-Here_We_Go_Again.wav" WAVE TRACK 05 AUDIO INDEX 01 00:00:00FILE "06-Dominium-Let_Your_Mind_(bass_mix)_(old_style_favourite).wav" WAVE TRACK 06 AUDIO INDEX 01 00:00:00FILE "07-Party_Animals-Roodkapje.wav" WAVE TRACK 07 AUDIO INDEX 01 00:00:00FILE "08-Ortni-Center_Of_Life.wav" WAVE TRACK 08 AUDIO INDEX 01 00:00:00FILE "09-Rotterdam_Terror_Corps-The_Horror.wav" WAVE TRACK 09 AUDIO INDEX 01 00:00:00FILE "10-Rotterdam_Terror_Corps-We_Declare_War.wav" WAVE TRACK 10 AUDIO INDEX 01 00:00:00FILE "11-Gabbers_United-I_Still_Have_Extasy.wav" WAVE TRACK 11 AUDIO INDEX 01 00:00:00FILE "12-Flip-Explode_It_(the_killer_mix).wav" WAVE TRACK 12 AUDIO INDEX 01 00:00:00FILE "13-MC_Ammo_&_DJ_Agonizer-Put_The_Music_On.wav" WAVE TRACK 13 AUDIO INDEX 01 00:00:00FILE "14-Spooky_Mooky-Middle_Thrill-_Enter_The_Dragon.wav" WAVE TRACK 14 AUDIO INDEX 01 00:00:00FILE "15-J.D.A.-Voel_Je_Die_Bass.wav" WAVE TRACK 15 AUDIO INDEX 01 00:00:00FILE "16-Trashcanman-Sex,_Drugs_&_Rock_'N_Roll.wav" WAVE TRACK 16 AUDIO INDEX 01 00:00:00FILE "17-Crypt-The_9th_Circle.wav" WAVE TRACK 17 AUDIO INDEX 01 00:00:00FILE "18-3_Da_Hard_Way-Overdose.wav" WAVE TRACK 18 AUDIO INDEX 01 00:00:00FILE "19-The_Lawyer-Yo_Dj_(Buzz_Fuzz_Remix).wav" WAVE TRACK 19 AUDIO INDEX 01 00:00:00FILE "20-Chosen_Few-The_Name_Of_The_D.J..wav" WAVE TRACK 20 AUDIO INDEX 01 00:00:00FILE "21-Archatos-The_Strength_Of_Unity.wav" WAVE TRACK 21 AUDIO INDEX 01 00:00:00FILE "22-D.J._Dano-Fukem_All_(driveby_mix).wav" WAVE TRACK 22 AUDIO INDEX 01 00:00:00FILE "23-Shadowlands_Terrorists-Shadowlands_Anthem.wav" WAVE TRACK 23 AUDIO INDEX 01 00:00:00FILE "24-J.D.A._&_Delta_Nine-Real_Hardcore_En_Anders_Niks_(censored_version).wav" WAVE TRACK 24 AUDIO INDEX 01 00:00:00FILE "25-Spooky_Mooky-Outtro-_Meditate.wav" WAVE TRACK 25 AUDIO INDEX 01 00:00:00

Лог проверки качества

-----------------------
DON'T MODIFY THIS FILE
-----------------------
PERFORMER: auCDtect Task Manager, ver. 1.6.0 RC1 build 1.6.0.1Copyright (c) 2008-2010 y-soft. All rights reservedhttp://y-soft.org
ANALYZER: auCDtect: CD records authenticity detector, version 0.8.2Copyright (c) 2004 Oleg Berngardt. All rights reserved.Copyright (c) 2004 Alexander Djourik. All rights reserved.
FILE: 225-spooky_mooky-outtro_meditate.flac Size: 5112214 Hash: 38528D9EF13DDEBF2EF8AEE406BA64BD Accuracy: -m0 Conclusion: CDDA 100% Signature: FA11D8D7967CF739A9DBCC62FB41C9C8A158E725FILE: 224-j.d.a._and_delta_nine-real_hardcore_en_anders_niks_(censored_version).flac Size: 13595160 Hash: FF34B7469B254C99F66879BA48EF3395 Accuracy: -m0 Conclusion: CDDA 100% Signature: DA46BA7A5E6FD8A910E5B88FA106DBF3AF16E13AFILE: 223-shadowlands_terrorists-shadowlands_anthem.flac Size: 13429358 Hash: B8911B0007093C719DA755A274DF92B1 Accuracy: -m0 Conclusion: CDDA 100% Signature: 16C723D2E7373F2762C86F491712A904EF0D13FBFILE: 222-dj_dano-fukem_all_(driveby_mix).flac Size: 9813218 Hash: B6311258B39382B01EE7EDEFF9E6F7B5 Accuracy: -m0 Conclusion: CDDA 100% Signature: F4E03348F81A3BC3CFF413A30DE793AD75C1599CFILE: 221-archatos-the_strength_of_unity.flac Size: 12078663 Hash: 11EDC27D039D89EED8CCA6306223AF2A Accuracy: -m0 Conclusion: CDDA 99% Signature: FB086CDF6104BE1BFAD33CA332FFE5683DA867FDFILE: 220-chosen_few-the_name_of_the_dj.flac Size: 12770542 Hash: BDBB37E635EEC0D7FEB1CBDF8AAB6CFB Accuracy: -m0 Conclusion: CDDA 100% Signature: B50C6DBE13454983B492A41C663ED23BE548FBDEFILE: 219-the_lawyer-yo_dj_(buzz_fuzz_remix).flac Size: 9618973 Hash: 4284541FD9EC0987AEE05875DD66DA6E Accuracy: -m0 Conclusion: CDDA 100% Signature: 5FCDAF417DD7F8F4E3316FDD0888F857ADCCE14BFILE: 218-3_da_hard_way-overdose.flac Size: 13718035 Hash: 8FA6AC2FFA259370FCC1B40D4F1666F4 Accuracy: -m0 Conclusion: CDDA 100% Signature: 8619F6578C7597743BA9893871B3EE23CF73F80FFILE: 217-crypt-the_9th_circle.flac Size: 11607656 Hash: 1F3F35FB51E02208770B837C421CDC61 Accuracy: -m0 Conclusion: CDDA 99% Signature: FA5ED66A8239E8F07526F782194727B7E8603D5BFILE: 216-trashcanman-sex_drugs_and_rock_n_roll.flac Size: 11211989 Hash: FDC4502E8D16ACB3C2A992D2041B658C Accuracy: -m0 Conclusion: CDDA 99% Signature: 4CC9CAEEC7FF8DF7FFBED56CC24568E87709346DFILE: 215-j.d.a.-voel_je_die_bass.flac Size: 10075089 Hash: 60F3A687ECB621467CF387282E17E5B0 Accuracy: -m0 Conclusion: CDDA 100% Signature: 59933C707C51849C4E1094E4D2E8D4AD915EFB0CFILE: 214-spooky_mooky-middle_thrill_enter_the_dragon.flac Size: 2721241 Hash: DEE01B4B377314B67451EFD5650F8EE0 Accuracy: -m0 Conclusion: CDDA 100% Signature: 09E6492D90FCC5864C15E63334F40B2717AA95F7FILE: 213-mc_ammo_and_dj_agonizer-put_the_music_on.flac Size: 10514017 Hash: 708F474B171ECE29FA24E7473F4B95DC Accuracy: -m0 Conclusion: CDDA 99% Signature: 1C1B2AADA5737347F39A12CD7C2B01C078154250FILE: 212-flip-explode_it_(the_killer_mix).flac Size: 9678400 Hash: 702B4F12CD0E1B4DD33FA99F4DA7DD14 Accuracy: -m0 Conclusion: CDDA 100% Signature: F4094C7DC05E9173E7F7DE70273D63AAB6218840FILE: 211-gabbers_united-i_still_have_extasy.flac Size: 10663420 Hash: 1A1DC73248F8527AF1C392C6843C37F4 Accuracy: -m0 Conclusion: CDDA 100% Signature: B7C1B7063EF7E0B7D67250981BCEEA46D7DA3E1EFILE: 210-rotterdam_terror_corps-we_declare_war.flac Size: 12457874 Hash: B37F3ADF48AF8D8BE1A17E203DB9C176 Accuracy: -m0 Conclusion: CDDA 100% Signature: 0062395959096F981D8952E09E5F66B443EAE1D4FILE: 209-rotterdam_terror_corps-the_horror.flac Size: 13549888 Hash: 2E307F3A148D0685C288C0881CD35250 Accuracy: -m0 Conclusion: CDDA 100% Signature: F5F65A2BB5E189471A1470B550E5CB4292BFC0F6FILE: 208-ortni-center_of_life.flac Size: 11080695 Hash: 09401BB6D7C174BB8574CC326E219477 Accuracy: -m0 Conclusion: CDDA 100% Signature: 9DD1FE5B93E760A15F01CAB8AC703CF590A077BEFILE: 207-party_animals-roodkapje.flac Size: 11487664 Hash: 2E91C3D4AE330597D04FEC3CBF8B5D68 Accuracy: -m0 Conclusion: CDDA 100% Signature: DD5545D414243926F2B85CF230C82F9C08ED7C25FILE: 206-dominium-let_your_mind_(bass_mix).flac Size: 11140192 Hash: ACF91F88CE3591B1229ABBE29AC21DE6 Accuracy: -m0 Conclusion: CDDA 100% Signature: B6D1FE0C29F429494DA1328FC5CA0A4381BA11DFFILE: 205-ruffian-here_we_go_again.flac Size: 9013305 Hash: 37DD070FFA69A26D6561BFCBA3450B4E Accuracy: -m0 Conclusion: CDDA 100% Signature: 036C89D9A82658CE8CF8931AFFD99F945D7F8BC8FILE: 204-dj_dano_and_zev-the_bottomline.flac Size: 8754641 Hash: 2543E8C0A937EA78A548D731A478CCAB Accuracy: -m0 Conclusion: CDDA 100% Signature: 8E95EECE61F8098D6227D903EFDF4E99BC00E9FCFILE: 203-dj_vince-v-ruz.flac Size: 11498110 Hash: A62E0FBCD441DF6233B9BC9D77E3EDA8 Accuracy: -m0 Conclusion: CDDA 100% Signature: 505608CB68A3C7C2715EAF354D41AAE1E30BD130FILE: 202-megatron-terrorizing.flac Size: 11027171 Hash: 7233AF91E910975CF27A659548081D90 Accuracy: -m0 Conclusion: CDDA 100% Signature: DAB823A9D9E3C25613390E3EFB2D08BBAE7BE4C6FILE: 201-spooky_mooky-intro_pump_your_veins.flac Size: 4891137 Hash: EC479A6C792AD84A76D3DB311C9C0952 Accuracy: -m0 Conclusion: CDDA 100% Signature: 7D9DA0206B293036C30418B63B1DF15D11D30ABCFILE: 120-ortni-center_of_life.flac Size: 22612294 Hash: 1BE0F8B004E5C18E162149325A36141D Accuracy: -m0 Conclusion: CDDA 100% Signature: 25C9C5ABC82345BE2C34F6432FFF10C0196A26B0FILE: 119-highlander-get_them_move_on.flac Size: 27306136 Hash: F958C7CDFF0BD5169B5F735E840E49F0 Accuracy: -m0 Conclusion: CDDA 100% Signature: FDAE05399F03808F45F8156ED0A8876F0A46808EFILE: 118-dj_dano-fukem_all_(driveby_mix).flac Size: 28179724 Hash: 20D174DA0FD70FD97F8ED2933405D17F Accuracy: -m0 Conclusion: CDDA 100% Signature: 54D9C13F0BD314C35E911C32D695FA04FD623813FILE: 117-archatos-the_strength_of_unity.flac Size: 24224928 Hash: D4181D4A59FB4EC475461F233B4E97D4 Accuracy: -m0 Conclusion: CDDA 100% Signature: 89ACD873244B89F7C4E986DCA5B4FF06112AB022FILE: 116-frank-e_and_mars-l-aeon.flac Size: 32341503 Hash: BBBB19DBC9D4AB6339A201AAF1778989 Accuracy: -m0 Conclusion: CDDA 100% Signature: CCA412C44304BA33F78FB2CA610CCEE6BB52758AFILE: 115-j.d.a._and_delta_nine-real_hardcore_en_anders_niks_(cencored_version).flac Size: 25289323 Hash: 203539D7035133F32748D6A3E92796B8 Accuracy: -m0 Conclusion: CDDA 100% Signature: A28B3EEA724B6049AA6C8083C8133D8CA7682C83FILE: 114-heardhead-gabbaman.flac Size: 29502788 Hash: C9D11405224132B6A05C3CAF89FECBB3 Accuracy: -m0 Conclusion: CDDA 100% Signature: B6EFAAFBE5C7176A34E6A28E7F5FBC0BFC94977FFILE: 113-3_da_hard_way-overdose.flac Size: 32710953 Hash: 0394875C49E82B7956B671A7E21620D2 Accuracy: -m0 Conclusion: CDDA 100% Signature: 6FD47AAB8CA7AE25AA5F7F926B61B0C93EF6812BFILE: 112-shadowlands_terrorists-useless_shit.flac Size: 29065381 Hash: EC72D564C4A66AA4DF3A24D10E09DF02 Accuracy: -m0 Conclusion: CDDA 100% Signature: ECA52D1FF2F48005880BE29DF096BEBE8AEABCEAFILE: 111-champ-e-on-the_party_is_burning.flac Size: 25610467 Hash: A7D4FF471F203B31B188A2116F842882 Accuracy: -m0 Conclusion: CDDA 100% Signature: C852DB1B0147235E74F1CC7D64CDD413CFD0561EFILE: 110-dj_vince-v-ruz.flac Size: 35521209 Hash: 06470583B6890B81779AF2F622C3EC7A Accuracy: -m0 Conclusion: CDDA 100% Signature: 35D8AAF6DF033BAB9BBC292AF3D4A3BFBEB6F60BFILE: 109-omar_santana-step_the_fuck_back_(dj_paul_mix).flac Size: 25779362 Hash: 0AC5C4A2715BDFF8BEC3947A04342A89 Accuracy: -m0 Conclusion: CDDA 99% Signature: BB5E58B332F8386C80E70CBBE427EFEA1DCCAD87FILE: 108-necromancers-enlightning_of_the_darkness.flac Size: 31764423 Hash: EB111694B9658F0A4EB358F1E2738420 Accuracy: -m0 Conclusion: CDDA 100% Signature: A1D292C3A57CF4390C4D958DFF7F06523DD0875FFILE: 107-mastermind-dance_for_me.flac Size: 27311578 Hash: A9EF82D245258D99023314F823B88F4E Accuracy: -m0 Conclusion: CDDA 100% Signature: 0255FEA4186D1CC32C7A59027DAAFAFA05B96318FILE: 106-flip-explode_it_(the_killer_mix).flac Size: 29843488 Hash: 268038C2FE33E112F64687B9C5990195 Accuracy: -m0 Conclusion: CDDA 100% Signature: CF2BC687328DFED47C37BA9897583ACB4ABDC464FILE: 105-bass-d_and_king_matthew-damn_the_dee-jay_(97_remix).flac Size: 24844620 Hash: 99C9BA49FAA04834A8C2EF39B1E2FE75 Accuracy: -m0 Conclusion: CDDA 99% Signature: C209E994D56C1EC067F9D3433B5723A7E6E4CF39FILE: 104-rotterdam_terror_corps-the_horror.flac Size: 36714642 Hash: F81F68F048E215181600A213543FC35C Accuracy: -m0 Conclusion: CDDA 100% Signature: 6AE5F46391B7BAC63FBD92448F37999CCB66BCE0FILE: 103-ruffian-pump_this_party.flac Size: 33575251 Hash: 8874571C3A1FF8F64F77F9A5E8D3953D Accuracy: -m0 Conclusion: CDDA 100% Signature: 66AE209232B5882D1E9382ADEC142AD4F47F37D3FILE: 102-dominium-let_your_mind_(bass_mix).flac Size: 22246641 Hash: 520069E669C6A11FF39D7F861CB4CDFD Accuracy: -m0 Conclusion: MPEG 95% Signature: E443D992C596767336FDD0EFFD76FE58F5904867FILE: 101-chosen_few-the_name_of_the_dj_(buzz-fuzz_remix).flac Size: 25977539 Hash: 6412879C203BC373D9F5F0A610FDE8B7 Accuracy: -m0 Conclusion: CDDA 100% Signature: 2D8F9862FEF95311D11A20EE41DA4DCCACC37A1A

_________________
Показать сообщения:    

Текущее время: Сегодня 08:00

Часовой пояс: GMT



Вы не можете начинать темы
Вы не можете отвечать на сообщения
Вы не можете редактировать свои сообщения
Вы не можете удалять свои сообщения
Вы не можете голосовать в опросах
Вы не можете прикреплять файлы к сообщениям
Вы не можете скачивать файлы