Важное объявление!
У Нас Все раздачи мультитрекерные, при нуле пиров в релизах, можете смело вставать на закачку!
 
Автор Сообщение

HUNTER

Стаж:
4 года 6 месяцев
Сообщений:
61006

Репутация: 101

[+] [-]
Вне форума [Профиль] [ЛС]

Hardcore Generation II
Жанр: Hardcore, Gabber, Happy Hardcore
Носитель: CD
Год издания: 1997
Издатель (лейбл): MECADO
Номер по каталогу: MEC 10072
Аудиокодек: FLAC (*.flac)
Тип рипа: tracks+.cue
Битрейт аудио: lossless
Продолжительность: 01:16:04
Источник (релизер): what.cd
Наличие сканов в содержимом раздачи: да
Треклист:
01. Gabber Piet - Love U Hardcore (Radio Mix) [03:23]
02. Juggernaut - Ruffneck Rules The Artcore Scene (12" Edit) [03:37]
03. Party Animals - Roodkapje [04:09]
04. Rotterdam Terror Corps - We Declare War [03:36]
05. DJ Dano & Z'EV - The Bottom Line [03:53]
06. Trickster - White Line [04:16]
07. Mosselman - Mossels (Radical Rickmix) [03:36]
08. Gabbers United - We Are The Gabbers (Radical Mix) [04:10]
09. DJ The Stallion - Succers [03:51]
10. Reef Beest - Op Een Grote Paddestoel (Hardcore Paddo Mix) [03:19]
11. Thundergods From Asgard, The - Bustin' Walls [03:34]
12. Gabbers United - I Still Have Extasy [04:01]
13. Hardcore Motherfuckers - I'll Be Your Only Friend (Fuckin' Hard Mix) [03:42]
14. Dr. Z-Vago - Bat Device (Reverse Mix) [03:34]
15. Mastermind - Musical Masterpiece [03:33]
16. Ruffian - Here We Go Again [03:31]
17. DJ Wicked - Tiger [03:56]
18. Syphax - At War [03:32]
19. Crypt - The 9th Circle [04:20]
20. Megatron - Terrorizing [04:22]

Лог создания рипа

Exact Audio Copy V1.0 beta 3 from 29. August 2011
EAC extraction logfile from 7. June 2012, 22:33
Various / Hardcore Generation II
Used drive : HL-DT-STDVDRAM GSA-T10N Adapter: 0 ID: 0
Read mode : SecureUtilize accurate stream : YesDefeat audio cache : YesMake use of C2 pointers : No
Read offset correction : 667Overread into Lead-In and Lead-Out : NoFill up missing offset samples with silence : YesDelete leading and trailing silent blocks : NoNull samples used in CRC calculations : YesUsed interface : Native Win32 interface for Win NT & 2000Gap handling : Appended to previous track
Used output format : Internal WAV RoutinesSample format : 44.100 Hz; 16 Bit; Stereo
TOC of the extracted CD
Track | Start | Length | Start sector | End sector --------------------------------------------------------- 1 | 0:00.00 | 3:23.34 | 0 | 15258 2 | 3:23.34 | 3:37.11 | 15259 | 31544 3 | 7:00.45 | 4:09.12 | 31545 | 50231 4 | 11:09.57 | 3:36.31 | 50232 | 66462 5 | 14:46.13 | 3:53.39 | 66463 | 83976 6 | 18:39.52 | 4:16.74 | 83977 | 103250 7 | 22:56.51 | 3:36.32 | 103251 | 119482 8 | 26:33.08 | 4:10.58 | 119483 | 138290 9 | 30:43.66 | 3:51.70 | 138291 | 155685 10 | 34:35.61 | 3:19.42 | 155686 | 170652 11 | 37:55.28 | 3:34.27 | 170653 | 186729 12 | 41:29.55 | 4:01.60 | 186730 | 204864 13 | 45:31.40 | 3:42.32 | 204865 | 221546 14 | 49:13.72 | 3:34.34 | 221547 | 237630 15 | 52:48.31 | 3:33.61 | 237631 | 253666 16 | 56:22.17 | 3:31.09 | 253667 | 269500 17 | 59:53.26 | 3:56.09 | 269501 | 287209 18 | 63:49.35 | 3:32.26 | 287210 | 303135 19 | 67:21.61 | 4:20.00 | 303136 | 322635 20 | 71:41.61 | 4:22.45 | 322636 | 342330
Track 1
Filename L:\Various Artists - Hardcore Generation II (1997) [FLAC] (Mecado MEC 10072) (VelvetUndergroundForum.com)\01 - Gabber Piet - Love U Hardcore (Radio Mix).wav
Pre-gap length 0:00:02.00
Peak level 94.9 % Extraction speed 2.8 X Track quality 100.0 % Test CRC D13F3AC1 Copy CRC D13F3AC1 Accurately ripped (confidence 1) [E8F4D397] (AR v2) Copy OK
Track 2
Filename L:\Various Artists - Hardcore Generation II (1997) [FLAC] (Mecado MEC 10072) (VelvetUndergroundForum.com)\02 - Juggernaut - Ruffneck Rules The Artcore Scene (12'' Edit).wav
Peak level 98.8 % Extraction speed 2.6 X Track quality 99.9 % Test CRC D5C76F4B Copy CRC D5C76F4B Accurately ripped (confidence 1) [33D7DBF7] (AR v2) Copy OK
Track 3
Filename L:\Various Artists - Hardcore Generation II (1997) [FLAC] (Mecado MEC 10072) (VelvetUndergroundForum.com)\03 - Party Animals - Roodkapje.wav
Peak level 100.0 % Extraction speed 3.4 X Track quality 100.0 % Test CRC 604581F7 Copy CRC 604581F7 Accurately ripped (confidence 1) [5CE6BF0A] (AR v2) Copy OK
Track 4
Filename L:\Various Artists - Hardcore Generation II (1997) [FLAC] (Mecado MEC 10072) (VelvetUndergroundForum.com)\04 - Rotterdam Terror Corps - We Declare War.wav
Peak level 94.9 % Extraction speed 3.5 X Track quality 100.0 % Test CRC 7FC98254 Copy CRC 7FC98254 Accurately ripped (confidence 1) [CDD080A9] (AR v2) Copy OK
Track 5
Filename L:\Various Artists - Hardcore Generation II (1997) [FLAC] (Mecado MEC 10072) (VelvetUndergroundForum.com)\05 - DJ Dano & Z'EV - The Bottom Line.wav
Peak level 84.6 % Extraction speed 3.8 X Track quality 100.0 % Test CRC A749E4B5 Copy CRC A749E4B5 Accurately ripped (confidence 1) [5FA327E3] (AR v2) Copy OK
Track 6
Filename L:\Various Artists - Hardcore Generation II (1997) [FLAC] (Mecado MEC 10072) (VelvetUndergroundForum.com)\06 - Trickster - White Line.wav
Peak level 97.6 % Extraction speed 3.4 X Track quality 99.9 % Test CRC 638D1EB1 Copy CRC 638D1EB1 Accurately ripped (confidence 1) [8DE6CFD3] (AR v2) Copy OK
Track 7
Filename L:\Various Artists - Hardcore Generation II (1997) [FLAC] (Mecado MEC 10072) (VelvetUndergroundForum.com)\07 - Mosselman - Mossels (Radical Rickmix).wav
Peak level 94.9 % Extraction speed 3.4 X Track quality 99.9 % Test CRC 9D48BC4E Copy CRC 9D48BC4E Accurately ripped (confidence 1) [5300C9C0] (AR v2) Copy OK
Track 8
Filename L:\Various Artists - Hardcore Generation II (1997) [FLAC] (Mecado MEC 10072) (VelvetUndergroundForum.com)\08 - Gabbers United - We Are The Gabbers (Radical Mix).wav
Peak level 94.9 % Extraction speed 4.4 X Track quality 100.0 % Test CRC 5F202B3E Copy CRC 5F202B3E Accurately ripped (confidence 1) [BC167827] (AR v2) Copy OK
Track 9
Filename L:\Various Artists - Hardcore Generation II (1997) [FLAC] (Mecado MEC 10072) (VelvetUndergroundForum.com)\09 - DJ The Stallion - Succers.wav
Peak level 100.0 % Extraction speed 4.5 X Track quality 100.0 % Test CRC 71739525 Copy CRC 71739525 Accurately ripped (confidence 1) [6F303B2D] (AR v2) Copy OK
Track 10
Filename L:\Various Artists - Hardcore Generation II (1997) [FLAC] (Mecado MEC 10072) (VelvetUndergroundForum.com)\10 - Reef Beest - Op Een Grote Paddestoel (Hardcore Paddo Mix).wav
Peak level 94.9 % Extraction speed 3.8 X Track quality 99.9 % Test CRC 2917B20A Copy CRC 2917B20A Accurately ripped (confidence 1) [72F39823] (AR v2) Copy OK
Track 11
Filename L:\Various Artists - Hardcore Generation II (1997) [FLAC] (Mecado MEC 10072) (VelvetUndergroundForum.com)\11 - Thundergods From Asgard, The - Bustin' Walls.wav
Peak level 94.9 % Extraction speed 4.7 X Track quality 100.0 % Test CRC BF286093 Copy CRC BF286093 Cannot be verified as accurate (confidence 1) [C5DA4570], AccurateRip returned [90EDEDE1] (AR v2) Copy OK
Track 12
Filename L:\Various Artists - Hardcore Generation II (1997) [FLAC] (Mecado MEC 10072) (VelvetUndergroundForum.com)\12 - Gabbers United - I Still Have Extasy.wav
Peak level 94.9 % Extraction speed 5.0 X Track quality 100.0 % Test CRC 2E881A66 Copy CRC 2E881A66 Accurately ripped (confidence 1) [6B887947] (AR v2) Copy OK
Track 13
Filename L:\Various Artists - Hardcore Generation II (1997) [FLAC] (Mecado MEC 10072) (VelvetUndergroundForum.com)\13 - Hardcore Motherfuckers - I'll Be Your Only Friend (Fuckin' Hard Mix).wav
Peak level 94.9 % Extraction speed 4.2 X Track quality 99.9 % Test CRC 2CB0AF82 Copy CRC 2CB0AF82 Track not present in AccurateRip database Copy OK
Track 14
Filename L:\Various Artists - Hardcore Generation II (1997) [FLAC] (Mecado MEC 10072) (VelvetUndergroundForum.com)\14 - Dr. Z-Vago - Bat Device (Reverse Mix).wav
Peak level 87.6 % Extraction speed 4.3 X Track quality 99.9 % Test CRC 4A226517 Copy CRC 4A226517 Cannot be verified as accurate (confidence 1) [AAB0A53D], AccurateRip returned [A5709771] (AR v2) Copy OK
Track 15
Filename L:\Various Artists - Hardcore Generation II (1997) [FLAC] (Mecado MEC 10072) (VelvetUndergroundForum.com)\15 - Mastermind - Musical Masterpiece.wav
Peak level 94.9 % Extraction speed 4.4 X Track quality 99.9 % Test CRC FB69E8E6 Copy CRC FB69E8E6 Cannot be verified as accurate (confidence 1) [737F5357], AccurateRip returned [251BABEE] (AR v2) Copy OK
Track 16
Filename L:\Various Artists - Hardcore Generation II (1997) [FLAC] (Mecado MEC 10072) (VelvetUndergroundForum.com)\16 - Ruffian - Here We Go Again.wav
Peak level 94.9 % Extraction speed 4.4 X Track quality 99.9 % Test CRC A59B5FB4 Copy CRC A59B5FB4 Cannot be verified as accurate (confidence 1) [BCF14D29], AccurateRip returned [71C95A5C] (AR v2) Copy OK
Track 17
Filename L:\Various Artists - Hardcore Generation II (1997) [FLAC] (Mecado MEC 10072) (VelvetUndergroundForum.com)\17 - DJ Wicked - Tiger.wav
Peak level 94.9 % Extraction speed 5.7 X Track quality 100.0 % Test CRC 4F622A4A Copy CRC 4F622A4A Accurately ripped (confidence 1) [F356B23C] (AR v2) Copy OK
Track 18
Filename L:\Various Artists - Hardcore Generation II (1997) [FLAC] (Mecado MEC 10072) (VelvetUndergroundForum.com)\18 - Syphax - At War.wav
Peak level 99.1 % Extraction speed 5.6 X Track quality 100.0 % Test CRC 9396D053 Copy CRC 9396D053 Accurately ripped (confidence 1) [1D89DECC] (AR v2) Copy OK
Track 19
Filename L:\Various Artists - Hardcore Generation II (1997) [FLAC] (Mecado MEC 10072) (VelvetUndergroundForum.com)\19 - Crypt - The 9th Circle.wav
Peak level 94.9 % Extraction speed 5.9 X Track quality 100.0 % Test CRC BBFCFB0C Copy CRC BBFCFB0C Accurately ripped (confidence 1) [274EDDDD] (AR v2) Copy OK
Track 20
Filename L:\Various Artists - Hardcore Generation II (1997) [FLAC] (Mecado MEC 10072) (VelvetUndergroundForum.com)\20 - Megatron - Terrorizing.wav
Peak level 87.9 % Extraction speed 5.2 X Track quality 99.9 % Test CRC AA9D86B9 Copy CRC AA9D86B9 Cannot be verified as accurate (confidence 1) [8F946EE6], AccurateRip returned [76D7380B] (AR v2) Copy OK
14 track(s) accurately ripped 5 track(s) could not be verified as accurate 1 track(s) not present in the AccurateRip database
Some tracks could not be verified as accurate
No errors occurred
End of status report
---- CUETools DB Plugin V2.1.3
[CTDB TOCID: oOUAPlkJB8p45t6AOrzb5hgBsnE-] found, Submit result: oOUAPlkJB8p45t6AOrzb5hgBsnE- has been confirmed[95032f2e] (1/2) Accurately ripped[2a90f7e4] (1/2) No match
==== Log checksum AC5C2F9BC76D1BCD799B41521C33D7B43E68D0E9494519E9DA7C25BE103455E6 ====

Содержание индексной карты (.CUE)

REM GENRE TechnoREM DATE 1997REM DISCID 2311D414REM COMMENT "ExactAudioCopy v1.0b3"PERFORMER "Various"TITLE "Hardcore Generation II"FILE "01 - Gabber Piet - Love U Hardcore (Radio Mix).flac" WAVE TRACK 01 AUDIO TITLE "Love U Hardcore (Radio Mix)" PERFORMER "Gabber Piet" INDEX 01 00:00:00FILE "02 - Juggernaut - Ruffneck Rules The Artcore Scene (12'' Edit).flac" WAVE TRACK 02 AUDIO TITLE "Ruffneck Rules The Artcore Scene (12' Edit)" PERFORMER "Juggernaut" INDEX 01 00:00:00FILE "03 - Party Animals - Roodkapje.flac" WAVE TRACK 03 AUDIO TITLE "Roodkapje" PERFORMER "Party Animals" INDEX 01 00:00:00FILE "04 - Rotterdam Terror Corps - We Declare War.flac" WAVE TRACK 04 AUDIO TITLE "We Declare War" PERFORMER "Rotterdam Terror Corps" INDEX 01 00:00:00FILE "05 - DJ Dano & Z'EV - The Bottom Line.flac" WAVE TRACK 05 AUDIO TITLE "The Bottom Line" PERFORMER "DJ Dano & Z'EV" INDEX 01 00:00:00FILE "06 - Trickster - White Line.flac" WAVE TRACK 06 AUDIO TITLE "White Line" PERFORMER "Trickster" INDEX 01 00:00:00FILE "07 - Mosselman - Mossels (Radical Rickmix).flac" WAVE TRACK 07 AUDIO TITLE "Mossels (Radical Rickmix)" PERFORMER "Mosselman" INDEX 01 00:00:00FILE "08 - Gabbers United - We Are The Gabbers (Radical Mix).flac" WAVE TRACK 08 AUDIO TITLE "We Are The Gabbers (Radical Mix)" PERFORMER "Gabbers United" INDEX 01 00:00:00FILE "09 - DJ The Stallion - Succers.flac" WAVE TRACK 09 AUDIO TITLE "Succers" PERFORMER "DJ The Stallion" INDEX 01 00:00:00FILE "10 - Reef Beest - Op Een Grote Paddestoel (Hardcore Paddo Mix).flac" WAVE TRACK 10 AUDIO TITLE "Op Een Grote Paddestoel (Hardcore Paddo Mix)" PERFORMER "Reef Beest" INDEX 01 00:00:00FILE "11 - Thundergods From Asgard, The - Bustin' Walls.flac" WAVE TRACK 11 AUDIO TITLE "Bustin' Walls" PERFORMER "Thundergods From Asgard, The" INDEX 01 00:00:00FILE "12 - Gabbers United - I Still Have Extasy.flac" WAVE TRACK 12 AUDIO TITLE "I Still Have Extasy" PERFORMER "Gabbers United" INDEX 01 00:00:00FILE "13 - Hardcore Motherfuckers - I'll Be Your Only Friend (Fuckin' Hard Mix).flac" WAVE TRACK 13 AUDIO TITLE "I'll Be Your Only Friend (Fuckin' Hard Mix)" PERFORMER "Hardcore Motherfuckers" INDEX 01 00:00:00FILE "14 - Dr. Z-Vago - Bat Device (Reverse Mix).flac" WAVE TRACK 14 AUDIO TITLE "Bat Device (Reverse Mix)" PERFORMER "Dr. Z-Vago" INDEX 01 00:00:00FILE "15 - Mastermind - Musical Masterpiece.flac" WAVE TRACK 15 AUDIO TITLE "Musical Masterpiece" PERFORMER "Mastermind" INDEX 01 00:00:00FILE "16 - Ruffian - Here We Go Again.flac" WAVE TRACK 16 AUDIO TITLE "Here We Go Again" PERFORMER "Ruffian" INDEX 01 00:00:00FILE "17 - DJ Wicked - Tiger.flac" WAVE TRACK 17 AUDIO TITLE "Tiger" PERFORMER "DJ Wicked" INDEX 01 00:00:00FILE "18 - Syphax - At War.flac" WAVE TRACK 18 AUDIO TITLE "At War" PERFORMER "Syphax" INDEX 01 00:00:00FILE "19 - Crypt - The 9th Circle.flac" WAVE TRACK 19 AUDIO TITLE "The 9th Circle" PERFORMER "Crypt" INDEX 01 00:00:00FILE "20 - Megatron - Terrorizing.flac" WAVE TRACK 20 AUDIO TITLE "Terrorizing" PERFORMER "Megatron" INDEX 01 00:00:00

_________________
Показать сообщения:    

Текущее время: Сегодня 09:32

Часовой пояс: GMT



Вы не можете начинать темы
Вы не можете отвечать на сообщения
Вы не можете редактировать свои сообщения
Вы не можете удалять свои сообщения
Вы не можете голосовать в опросах
Вы не можете прикреплять файлы к сообщениям
Вы не можете скачивать файлы
Наши партнеры: интернет магазин Ивановского трикотажа textilla.ru