Важное объявление!
У Нас Все раздачи мультитрекерные, при нуле пиров в релизах, можете смело вставать на закачку!
 
Автор Сообщение

HUNTER

Стаж:
4 года 4 месяца
Сообщений:
56749

Репутация: 101

[+] [-]
Вне форума [Профиль] [ЛС]

Hardcore Generation
Жанр: Hardcore, Gabber, Happy Hardcore
Носитель: CD
Год издания: 1997
Издатель (лейбл): MECADO
Номер по каталогу: MEC 70007
Аудиокодек: FLAC (*.flac)
Тип рипа: tracks+.cue
Битрейт аудио: lossless
Продолжительность: 02:30:13
Источник (релизер): what.cd
Наличие сканов в содержимом раздачи: да
Треклист:
CD 1
01. Dr Z-Vago - Dat Bat Device [05:42]
02. Babanation - Paranoia [04:07]
03. Hardcorps - My House [03:22]
04. Kabaal - Blow That Shit [02:58]
05. Kest and Donut - Gangster Remix [04:24]
06. Dj Paul Elstak feat Lindsay & MC Irvin - Get This Place (Paul Forze Mix) [04:15]
07. Eternal Terror - Bumb That Bass [05:00]
08. Discofrisco & Dj Inferno - Can We Kick It [05:02]
09. Da Dark Twins - My Message Is Simple [04:13]
10. Sound Enhancers - Rights Reserved [05:18]
11. Army of Darkness - The Future is Ours [04:00]
12. Flamman & Abrakas - Kepp Looking You'll Find Me [04:40]
13. RTC - Sick & Twisted [03:41]
14. Headvillage Bubonics - Motherfuckers Move [04:02]
15. Ill Behaviour - Go Act Ill [05:36]
16. Triggerhead - Take Your Head Out Of That Ass [03:48]
17. No Id - My Beat Comes Stalling In [04:39]
CD 2
01. R.T.C - Fuck you now bitch! [04:04]
02. Dj Wizzard vs Megatroye - The way we like it [04:43]
03. Japanese Deejay - Look 2 the right (hardcore mix) [03:35]
04. Let There Be Gore - Don't speak [03:39]
05. Flamman & Abraxas present MC lynx- I need love [03:38]
06. Wasting Program - Don't stop the beat [04:12]
07. DArrien kelly & Dj Attic & Styllis - Beaten like a bitch [05:36]
08. E-Rush - Fuck you man (army of darkness remix) [05:52]
09. Kesj and donut - Keep it hardcore (remix) [04:40]
10. Heart-Core - Gabberlove (hardcoreremix) [03:42]
11. The Accuser - Demons of revival [04:46]
12. R.T.C - We're gonna blow your mind (energie mix) [05:36]
13. High Velocity & The Objector - Rama Jama [03:06]
14. Flamman & Abraxas - I'll be your only friend [03:16]
15. Dr Z-Vago - Mo-Ther-Fu-Ckers [04:03]
16. Babanation - Milano overdrive [05:35]
17. Dj Perpetrator - Drop that shit [05:06]

logs and sheets

Log EAC CD 1
Exact Audio Copy V1.0 beta 3 from 29. August 2011
EAC extraction logfile from 7. June 2012, 16:34
Various / Hardcore Generation CD 1
Used drive : HL-DT-STDVDRAM GSA-T10N Adapter: 0 ID: 0
Read mode : SecureUtilize accurate stream : YesDefeat audio cache : YesMake use of C2 pointers : No
Read offset correction : 667Overread into Lead-In and Lead-Out : NoFill up missing offset samples with silence : YesDelete leading and trailing silent blocks : NoNull samples used in CRC calculations : YesUsed interface : Native Win32 interface for Win NT & 2000Gap handling : Appended to previous track
Used output format : Internal WAV RoutinesSample format : 44.100 Hz; 16 Bit; Stereo
TOC of the extracted CD
Track | Start | Length | Start sector | End sector --------------------------------------------------------- 1 | 0:00.00 | 5:42.50 | 0 | 25699 2 | 5:42.50 | 4:07.52 | 25700 | 44276 3 | 9:50.27 | 3:22.18 | 44277 | 59444 4 | 13:12.45 | 2:58.55 | 59445 | 72849 5 | 16:11.25 | 4:24.27 | 72850 | 92676 6 | 20:35.52 | 4:15.25 | 92677 | 111826 7 | 24:51.02 | 5:00.28 | 111827 | 134354 8 | 29:51.30 | 5:02.65 | 134355 | 157069 9 | 34:54.20 | 4:13.37 | 157070 | 176081 10 | 39:07.57 | 5:18.58 | 176082 | 199989 11 | 44:26.40 | 4:00.65 | 199990 | 218054 12 | 48:27.30 | 4:40.25 | 218055 | 239079 13 | 53:07.55 | 3:41.72 | 239080 | 255726 14 | 56:49.52 | 4:02.30 | 255727 | 273906 15 | 60:52.07 | 5:36.45 | 273907 | 299151 16 | 66:28.52 | 3:48.13 | 299152 | 316264 17 | 70:16.65 | 4:39.50 | 316265 | 337239
Track 1
Filename L:\Various Artists - Hardcore Generation (1997) [FLAC] (Mecado MEC 70007) (VelvetUndergroundForum.com)\Disc 1of2\01 - Dr Z-Vago - Dat Bat Device.wav
Pre-gap length 0:00:02.00
Peak level 98.3 % Extraction speed 2.6 X Track quality 100.0 % Test CRC 5D180421 Copy CRC 5D180421 Accurately ripped (confidence 1) [102B9490] (AR v1) Copy OK
Track 2
Filename L:\Various Artists - Hardcore Generation (1997) [FLAC] (Mecado MEC 70007) (VelvetUndergroundForum.com)\Disc 1of2\02 - Babanation - Paranoia.wav
Pre-gap length 0:00:01.25
Peak level 99.6 % Extraction speed 3.3 X Track quality 100.0 % Test CRC 6B57D94A Copy CRC 6B57D94A Accurately ripped (confidence 1) [D6FBCA15] (AR v1) Copy OK
Track 3
Filename L:\Various Artists - Hardcore Generation (1997) [FLAC] (Mecado MEC 70007) (VelvetUndergroundForum.com)\Disc 1of2\03 - Hardcorps - My House.wav
Pre-gap length 0:00:01.05
Peak level 99.6 % Extraction speed 3.4 X Track quality 100.0 % Test CRC 6997E700 Copy CRC 6997E700 Accurately ripped (confidence 1) [97A83CE8] (AR v1) Copy OK
Track 4
Filename L:\Various Artists - Hardcore Generation (1997) [FLAC] (Mecado MEC 70007) (VelvetUndergroundForum.com)\Disc 1of2\04 - Kabaal - Blow That Shit.wav
Pre-gap length 0:00:01.23
Peak level 90.3 % Extraction speed 3.6 X Track quality 100.0 % Test CRC CE213342 Copy CRC CE213342 Accurately ripped (confidence 1) [B3238F86] (AR v1) Copy OK
Track 5
Filename L:\Various Artists - Hardcore Generation (1997) [FLAC] (Mecado MEC 70007) (VelvetUndergroundForum.com)\Disc 1of2\05 - Kest and Donut - Gangster Remix.wav
Pre-gap length 0:00:01.13
Peak level 99.6 % Extraction speed 4.0 X Track quality 100.0 % Test CRC A22DE5C2 Copy CRC A22DE5C2 Accurately ripped (confidence 1) [0BE882DB] (AR v1) Copy OK
Track 6
Filename L:\Various Artists - Hardcore Generation (1997) [FLAC] (Mecado MEC 70007) (VelvetUndergroundForum.com)\Disc 1of2\06 - Dj Paul Elstak feat Lindsay & MC Irvin - Get This Place (Paul Forze Mix).wav
Pre-gap length 0:00:01.60
Peak level 100.0 % Extraction speed 4.1 X Track quality 100.0 % Test CRC 90461646 Copy CRC 90461646 Accurately ripped (confidence 1) [5AA96A85] (AR v1) Copy OK
Track 7
Filename L:\Various Artists - Hardcore Generation (1997) [FLAC] (Mecado MEC 70007) (VelvetUndergroundForum.com)\Disc 1of2\07 - Eternal Terror - Bumb That Bass.wav
Pre-gap length 0:00:00.72
Peak level 99.6 % Extraction speed 4.4 X Track quality 100.0 % Test CRC 638EF0D6 Copy CRC 638EF0D6 Accurately ripped (confidence 1) [DF54FA84] (AR v1) Copy OK
Track 8
Filename L:\Various Artists - Hardcore Generation (1997) [FLAC] (Mecado MEC 70007) (VelvetUndergroundForum.com)\Disc 1of2\08 - Discofrisco & Dj Inferno - Can We Kick It.wav
Pre-gap length 0:00:00.53
Peak level 99.7 % Extraction speed 4.7 X Track quality 100.0 % Test CRC 58A224C1 Copy CRC 58A224C1 Accurately ripped (confidence 1) [532D0F23] (AR v1) Copy OK
Track 9
Filename L:\Various Artists - Hardcore Generation (1997) [FLAC] (Mecado MEC 70007) (VelvetUndergroundForum.com)\Disc 1of2\09 - Da Dark Twins - My Message Is Simple.wav
Pre-gap length 0:00:00.58
Peak level 99.8 % Extraction speed 2.2 X Track quality 99.9 % Test CRC 6093E1E5 Copy CRC 6093E1E5 Accurately ripped (confidence 1) [4A4D0B49] (AR v1) Copy OK
Track 10
Filename L:\Various Artists - Hardcore Generation (1997) [FLAC] (Mecado MEC 70007) (VelvetUndergroundForum.com)\Disc 1of2\10 - Sound Enhancers - Rights Reserved.wav
Pre-gap length 0:00:00.57
Peak level 96.8 % Extraction speed 2.3 X Track quality 100.0 % Test CRC A971067F Copy CRC A971067F Accurately ripped (confidence 1) [88379914] (AR v1) Copy OK
Track 11
Filename L:\Various Artists - Hardcore Generation (1997) [FLAC] (Mecado MEC 70007) (VelvetUndergroundForum.com)\Disc 1of2\11 - Army of Darkness - The Future is Ours.wav
Pre-gap length 0:00:00.68
Peak level 99.6 % Extraction speed 2.2 X Track quality 100.0 % Test CRC C134DF9F Copy CRC C134DF9F Accurately ripped (confidence 1) [0697A1BE] (AR v1) Copy OK
Track 12
Filename L:\Various Artists - Hardcore Generation (1997) [FLAC] (Mecado MEC 70007) (VelvetUndergroundForum.com)\Disc 1of2\12 - Flamman & Abrakas - Kepp Looking You'll Find Me.wav
Pre-gap length 0:00:01.03
Peak level 99.6 % Extraction speed 2.4 X Track quality 100.0 % Test CRC A3F029D8 Copy CRC A3F029D8 Accurately ripped (confidence 1) [A5E5788F] (AR v1) Copy OK
Track 13
Filename L:\Various Artists - Hardcore Generation (1997) [FLAC] (Mecado MEC 70007) (VelvetUndergroundForum.com)\Disc 1of2\13 - RTC - Sick & Twisted.wav
Pre-gap length 0:00:01.00
Peak level 99.6 % Extraction speed 2.3 X Track quality 100.0 % Test CRC D78DA625 Copy CRC D78DA625 Accurately ripped (confidence 1) [3F0A2657] (AR v1) Copy OK
Track 14
Filename L:\Various Artists - Hardcore Generation (1997) [FLAC] (Mecado MEC 70007) (VelvetUndergroundForum.com)\Disc 1of2\14 - Headvillage Bubonics - Motherfuckers Move.wav
Pre-gap length 0:00:00.67
Peak level 96.6 % Extraction speed 2.4 X Track quality 100.0 % Test CRC 03B59330 Copy CRC 03B59330 Accurately ripped (confidence 1) [54221F52] (AR v1) Copy OK
Track 15
Filename L:\Various Artists - Hardcore Generation (1997) [FLAC] (Mecado MEC 70007) (VelvetUndergroundForum.com)\Disc 1of2\15 - Ill Behaviour - Go Act Ill.wav
Pre-gap length 0:00:01.10
Peak level 99.8 % Extraction speed 2.6 X Track quality 100.0 % Test CRC 69FED274 Copy CRC 69FED274 Accurately ripped (confidence 1) [80D516DD] (AR v1) Copy OK
Track 16
Filename L:\Various Artists - Hardcore Generation (1997) [FLAC] (Mecado MEC 70007) (VelvetUndergroundForum.com)\Disc 1of2\16 - Triggerhead - Take Your Head Out Of That Ass.wav
Pre-gap length 0:00:01.10
Peak level 99.3 % Extraction speed 2.6 X Track quality 100.0 % Test CRC 69DB7F98 Copy CRC 69DB7F98 Accurately ripped (confidence 1) [5BBCBB29] (AR v1) Copy OK
Track 17
Filename L:\Various Artists - Hardcore Generation (1997) [FLAC] (Mecado MEC 70007) (VelvetUndergroundForum.com)\Disc 1of2\17 - No Id - My Beat Comes Stalling In.wav
Pre-gap length 0:00:01.25
Peak level 99.6 % Extraction speed 2.7 X Track quality 100.0 % Test CRC 9E095A17 Copy CRC 9E095A17 Accurately ripped (confidence 1) [5271C227] (AR v1) Copy OK
All tracks accurately ripped
No errors occurred
End of status report
---- CUETools DB Plugin V2.1.3
[CTDB TOCID: jBk.6JhLvmN.IcyQIWQ3TXhgas8-] found, Submit result: already submitted[d3093663] (1/1) Accurately ripped
==== Log checksum 9D20F4DEA650A2165EE6F27DC5275B9137DC97770461223F576E73AAC99117D4 ====

cue CD 1

REM GENRE "Hardcore Gabber"REM DATE 1997REM DISCID 18119011REM COMMENT "ExactAudioCopy v1.0b3"PERFORMER "Various"TITLE "Hardcore Generation CD 1"FILE "01 - Dr Z-Vago - Dat Bat Device.wav" WAVE TRACK 01 AUDIO TITLE "Dat Bat Device" PERFORMER "Dr Z-Vago" INDEX 01 00:00:00 TRACK 02 AUDIO TITLE "Paranoia" PERFORMER "Babanation" INDEX 00 05:41:25FILE "02 - Babanation - Paranoia.wav" WAVE INDEX 01 00:00:00 TRACK 03 AUDIO TITLE "My House" PERFORMER "Hardcorps" INDEX 00 04:06:47FILE "03 - Hardcorps - My House.wav" WAVE INDEX 01 00:00:00 TRACK 04 AUDIO TITLE "Blow That Shit" PERFORMER "Kabaal" INDEX 00 03:20:70FILE "04 - Kabaal - Blow That Shit.wav" WAVE INDEX 01 00:00:00 TRACK 05 AUDIO TITLE "Gangster Remix" PERFORMER "Kest and Donut" INDEX 00 02:57:42FILE "05 - Kest and Donut - Gangster Remix.wav" WAVE INDEX 01 00:00:00 TRACK 06 AUDIO TITLE "Get This Place (Paul Forze Mix)" PERFORMER "Dj Paul Elstak feat Lindsay & MC Irvin" INDEX 00 04:22:42FILE "06 - Dj Paul Elstak feat Lindsay & MC Irvin - Get This Place (Paul Forze Mix).wav" WAVE INDEX 01 00:00:00 TRACK 07 AUDIO TITLE "Bumb That Bass" PERFORMER "Eternal Terror" INDEX 00 04:14:28FILE "07 - Eternal Terror - Bumb That Bass.wav" WAVE INDEX 01 00:00:00 TRACK 08 AUDIO TITLE "Can We Kick It" PERFORMER "Discofrisco & Dj Inferno" INDEX 00 04:59:50FILE "08 - Discofrisco & Dj Inferno - Can We Kick It.wav" WAVE INDEX 01 00:00:00 TRACK 09 AUDIO TITLE "My Message Is Simple" PERFORMER "Da Dark Twins" INDEX 00 05:02:07FILE "09 - Da Dark Twins - My Message Is Simple.wav" WAVE INDEX 01 00:00:00 TRACK 10 AUDIO TITLE "Rights Reserved" PERFORMER "Sound Enhancers" INDEX 00 04:12:55FILE "10 - Sound Enhancers - Rights Reserved.wav" WAVE INDEX 01 00:00:00 TRACK 11 AUDIO TITLE "The Future is Ours" PERFORMER "Army of Darkness" INDEX 00 05:17:65FILE "11 - Army of Darkness - The Future is Ours.wav" WAVE INDEX 01 00:00:00 TRACK 12 AUDIO TITLE "Kepp Looking You'll Find Me" PERFORMER "Flamman & Abrakas" INDEX 00 03:59:62FILE "12 - Flamman & Abrakas - Kepp Looking You'll Find Me.wav" WAVE INDEX 01 00:00:00 TRACK 13 AUDIO TITLE "Sick & Twisted" PERFORMER "RTC" INDEX 00 04:39:25FILE "13 - RTC - Sick & Twisted.wav" WAVE INDEX 01 00:00:00 TRACK 14 AUDIO TITLE "Motherfuckers Move" PERFORMER "Headvillage Bubonics" INDEX 00 03:41:05FILE "14 - Headvillage Bubonics - Motherfuckers Move.wav" WAVE INDEX 01 00:00:00 TRACK 15 AUDIO TITLE "Go Act Ill" PERFORMER "Ill Behaviour" INDEX 00 04:01:20FILE "15 - Ill Behaviour - Go Act Ill.wav" WAVE INDEX 01 00:00:00 TRACK 16 AUDIO TITLE "Take Your Head Out Of That Ass" PERFORMER "Triggerhead" INDEX 00 05:35:35FILE "16 - Triggerhead - Take Your Head Out Of That Ass.wav" WAVE INDEX 01 00:00:00 TRACK 17 AUDIO TITLE "My Beat Comes Stalling In" PERFORMER "No Id" INDEX 00 03:46:63FILE "17 - No Id - My Beat Comes Stalling In.wav" WAVE INDEX 01 00:00:00

Log EAC CD 2

Exact Audio Copy V1.0 beta 3 from 29. August 2011
EAC extraction logfile from 7. June 2012, 17:46
Various / Hardcore Generation CD 2
Used drive : HL-DT-STDVDRAM GSA-T10N Adapter: 0 ID: 0
Read mode : SecureUtilize accurate stream : YesDefeat audio cache : YesMake use of C2 pointers : No
Read offset correction : 667Overread into Lead-In and Lead-Out : NoFill up missing offset samples with silence : YesDelete leading and trailing silent blocks : NoNull samples used in CRC calculations : YesUsed interface : Native Win32 interface for Win NT & 2000Gap handling : Appended to previous track
Used output format : Internal WAV RoutinesSample format : 44.100 Hz; 16 Bit; Stereo
TOC of the extracted CD
Track | Start | Length | Start sector | End sector --------------------------------------------------------- 1 | 0:00.00 | 4:04.15 | 0 | 18314 2 | 4:04.15 | 4:43.02 | 18315 | 39541 3 | 8:47.17 | 3:35.50 | 39542 | 55716 4 | 12:22.67 | 3:39.33 | 55717 | 72174 5 | 16:02.25 | 3:38.35 | 72175 | 88559 6 | 19:40.60 | 4:12.42 | 88560 | 107501 7 | 23:53.27 | 5:36.05 | 107502 | 132706 8 | 29:29.32 | 5:52.25 | 132707 | 159131 9 | 35:21.57 | 4:40.55 | 159132 | 180186 10 | 40:02.37 | 3:42.58 | 180187 | 196894 11 | 43:45.20 | 4:46.50 | 196895 | 218394 12 | 48:31.70 | 5:36.70 | 218395 | 243664 13 | 54:08.65 | 3:06.42 | 243665 | 257656 14 | 57:15.32 | 3:16.03 | 257657 | 272359 15 | 60:31.35 | 4:03.55 | 272360 | 290639 16 | 64:35.15 | 5:35.17 | 290640 | 315781 17 | 70:10.32 | 5:06.18 | 315782 | 338749
Track 1
Filename L:\Various Artists - Hardcore Generation (1997) [FLAC] (Mecado MEC 70007) (VelvetUndergroundForum.com)\Disc 2of2\01 - R.T.C - Fuck you now bitch!.wav
Pre-gap length 0:00:02.00
Peak level 99.7 % Extraction speed 2.9 X Track quality 100.0 % Test CRC 29F5875C Copy CRC 29F5875C Accurately ripped (confidence 1) [1E827B58] (AR v1) Copy OK
Track 2
Filename L:\Various Artists - Hardcore Generation (1997) [FLAC] (Mecado MEC 70007) (VelvetUndergroundForum.com)\Disc 2of2\02 - Dj Wizzard vs Megatroye - The way we like it.wav
Pre-gap length 0:00:01.13
Peak level 99.8 % Extraction speed 3.3 X Track quality 100.0 % Test CRC 60A96412 Copy CRC 60A96412 Accurately ripped (confidence 1) [9E5F1067] (AR v1) Copy OK
Track 3
Filename L:\Various Artists - Hardcore Generation (1997) [FLAC] (Mecado MEC 70007) (VelvetUndergroundForum.com)\Disc 2of2\03 - Japanese Deejay - Look 2 the right (hardcore mix).wav
Pre-gap length 0:00:00.52
Peak level 99.6 % Extraction speed 3.4 X Track quality 100.0 % Test CRC 681AED4B Copy CRC 681AED4B Accurately ripped (confidence 1) [089BE61D] (AR v1) Copy OK
Track 4
Filename L:\Various Artists - Hardcore Generation (1997) [FLAC] (Mecado MEC 70007) (VelvetUndergroundForum.com)\Disc 2of2\04 - Let There Be Gore - Don't speak.wav
Peak level 99.6 % Extraction speed 3.1 X Track quality 99.9 % Test CRC 6124C942 Copy CRC 6124C942 Accurately ripped (confidence 1) [C3FE7138] (AR v1) Copy OK
Track 5
Filename L:\Various Artists - Hardcore Generation (1997) [FLAC] (Mecado MEC 70007) (VelvetUndergroundForum.com)\Disc 2of2\05 - Flamman & Abraxas present MC lynx- I need love.wav
Peak level 99.8 % Extraction speed 3.2 X Track quality 99.9 % Test CRC 67BC9477 Copy CRC 67BC9477 Accurately ripped (confidence 1) [501464B4] (AR v1) Copy OK
Track 6
Filename L:\Various Artists - Hardcore Generation (1997) [FLAC] (Mecado MEC 70007) (VelvetUndergroundForum.com)\Disc 2of2\06 - Wasting Program - Don't stop the beat.wav
Pre-gap length 0:00:00.53
Peak level 99.7 % Extraction speed 4.1 X Track quality 100.0 % Test CRC A2F224E8 Copy CRC A2F224E8 Accurately ripped (confidence 1) [CE696598] (AR v1) Copy OK
Track 7
Filename L:\Various Artists - Hardcore Generation (1997) [FLAC] (Mecado MEC 70007) (VelvetUndergroundForum.com)\Disc 2of2\07 - DArrien kelly & Dj Attic & Styllis - Beaten like a bitch.wav
Pre-gap length 0:00:00.50
Peak level 99.7 % Extraction speed 4.5 X Track quality 100.0 % Test CRC 71A4FA92 Copy CRC 71A4FA92 Accurately ripped (confidence 1) [17F6CD64] (AR v1) Copy OK
Track 8
Filename L:\Various Artists - Hardcore Generation (1997) [FLAC] (Mecado MEC 70007) (VelvetUndergroundForum.com)\Disc 2of2\08 - E-Rush - Fuck you man (army of darkness remix).wav
Pre-gap length 0:00:01.05
Peak level 99.7 % Extraction speed 4.8 X Track quality 100.0 % Test CRC FDE15A42 Copy CRC FDE15A42 Accurately ripped (confidence 1) [7406AA93] (AR v1) Copy OK
Track 9
Filename L:\Various Artists - Hardcore Generation (1997) [FLAC] (Mecado MEC 70007) (VelvetUndergroundForum.com)\Disc 2of2\09 - Kesj and donut - Keep it hardcore (remix).wav
Pre-gap length 0:00:00.57
Peak level 99.8 % Extraction speed 4.9 X Track quality 100.0 % Test CRC 34AA635D Copy CRC 34AA635D Accurately ripped (confidence 1) [ADBB729A] (AR v1) Copy OK
Track 10
Filename L:\Various Artists - Hardcore Generation (1997) [FLAC] (Mecado MEC 70007) (VelvetUndergroundForum.com)\Disc 2of2\10 - Heart-Core - Gabberlove (hardcoreremix).wav
Pre-gap length 0:00:01.35
Peak level 99.7 % Extraction speed 4.1 X Track quality 99.9 % Test CRC BA4CEC38 Copy CRC BA4CEC38 Accurately ripped (confidence 1) [5A37AB20] (AR v1) Copy OK
Track 11
Filename L:\Various Artists - Hardcore Generation (1997) [FLAC] (Mecado MEC 70007) (VelvetUndergroundForum.com)\Disc 2of2\11 - The Accuser - Demons of revival.wav
Pre-gap length 0:00:01.30
Peak level 99.7 % Extraction speed 5.3 X Track quality 100.0 % Test CRC A5FEDCB2 Copy CRC A5FEDCB2 Accurately ripped (confidence 1) [1D8AEDE4] (AR v1) Copy OK
Track 12
Filename L:\Various Artists - Hardcore Generation (1997) [FLAC] (Mecado MEC 70007) (VelvetUndergroundForum.com)\Disc 2of2\12 - R.T.C - We're gonna blow your mind (energie mix).wav
Pre-gap length 0:00:00.58
Peak level 99.6 % Extraction speed 5.5 X Track quality 100.0 % Test CRC E590D114 Copy CRC E590D114 Accurately ripped (confidence 1) [9A42CC7B] (AR v1) Copy OK
Track 13
Filename L:\Various Artists - Hardcore Generation (1997) [FLAC] (Mecado MEC 70007) (VelvetUndergroundForum.com)\Disc 2of2\13 - High Velocity & The Objector - Rama Jama.wav
Pre-gap length 0:00:01.43
Peak level 90.5 % Extraction speed 4.2 X Track quality 99.9 % Test CRC 0F4101F1 Copy CRC 0F4101F1 Accurately ripped (confidence 1) [51987C71] (AR v1) Copy OK
Track 14
Filename L:\Various Artists - Hardcore Generation (1997) [FLAC] (Mecado MEC 70007) (VelvetUndergroundForum.com)\Disc 2of2\14 - Flamman & Abraxas - I'll be your only friend.wav
Pre-gap length 0:00:01.17
Peak level 99.9 % Extraction speed 5.5 X Track quality 100.0 % Test CRC E19BD1EE Copy CRC E19BD1EE Accurately ripped (confidence 1) [7200567B] (AR v1) Copy OK
Track 15
Filename L:\Various Artists - Hardcore Generation (1997) [FLAC] (Mecado MEC 70007) (VelvetUndergroundForum.com)\Disc 2of2\15 - Dr Z-Vago - Mo-Ther-Fu-Ckers.wav
Pre-gap length 0:00:01.20
Peak level 99.9 % Extraction speed 4.8 X Track quality 99.9 % Test CRC A5B8AB11 Copy CRC A5B8AB11 Accurately ripped (confidence 1) [D3057106] (AR v1) Copy OK
Track 16
Filename L:\Various Artists - Hardcore Generation (1997) [FLAC] (Mecado MEC 70007) (VelvetUndergroundForum.com)\Disc 2of2\16 - Babanation - Milano overdrive.wav
Pre-gap length 0:00:00.58
Peak level 99.6 % Extraction speed 5.3 X Track quality 99.9 % Test CRC 6C5EDCB9 Copy CRC 6C5EDCB9 Accurately ripped (confidence 1) [BA99B7C9] (AR v1) Copy OK
Track 17
Filename L:\Various Artists - Hardcore Generation (1997) [FLAC] (Mecado MEC 70007) (VelvetUndergroundForum.com)\Disc 2of2\17 - Dj Perpetrator - Drop that shit.wav
Pre-gap length 0:00:00.50
Peak level 99.9 % Extraction speed 5.0 X Track quality 99.9 % Test CRC 2F5BDF35 Copy CRC 2F5BDF35 Accurately ripped (confidence 1) [2E221F2E] (AR v1) Copy OK
All tracks accurately ripped
No errors occurred
End of status report
---- CUETools DB Plugin V2.1.3
[CTDB TOCID: S.MZdIliRYHVpudyCBr7fAvKY5k-] found, Submit result: already submitted[ee599fb9] (1/1) Accurately ripped
==== Log checksum B6B2905FDE00D95EB761A7123CEAA5D818AD4ED85444D8293F976A05FA1CDFD6 ====

cue CD 2

REM GENRE "Hardcore Gabber"REM DATE 1997REM DISCID E711A411REM COMMENT "ExactAudioCopy v1.0b3"PERFORMER "Various"TITLE "Hardcore Generation CD 2"FILE "01 - R.T.C - Fuck you now bitch!.wav" WAVE TRACK 01 AUDIO TITLE "R.T.C - Fuck you now bitch!" PERFORMER "Various" INDEX 01 00:00:00 TRACK 02 AUDIO TITLE "Dj Wizzard vs Megatroye - The way we like it" PERFORMER "Various" INDEX 00 04:03:02FILE "02 - Dj Wizzard vs Megatroye - The way we like it.wav" WAVE INDEX 01 00:00:00 TRACK 03 AUDIO TITLE "Japanese Deejay - Look 2 the right (hardcore mix)" PERFORMER "Various" INDEX 00 04:42:25FILE "03 - Japanese Deejay - Look 2 the right (hardcore mix).wav" WAVE INDEX 01 00:00:00FILE "04 - Let There Be Gore - Don't speak.wav" WAVE TRACK 04 AUDIO TITLE "Let There Be Gore - Don't speak" PERFORMER "Various" INDEX 01 00:00:00FILE "05 - Flamman & Abraxas present MC lynx- I need love.wav" WAVE TRACK 05 AUDIO TITLE "Flamman & Abraxas present MC lynx- I need love" PERFORMER "Various" INDEX 01 00:00:00 TRACK 06 AUDIO TITLE "Wasting Program - Don't stop the beat" PERFORMER "Various" INDEX 00 03:37:57FILE "06 - Wasting Program - Don't stop the beat.wav" WAVE INDEX 01 00:00:00 TRACK 07 AUDIO TITLE "DArrien kelly & Dj Attic & Styllis - Beaten like a bitch" PERFORMER "Various" INDEX 00 04:11:67FILE "07 - DArrien kelly & Dj Attic & Styllis - Beaten like a bitch.wav" WAVE INDEX 01 00:00:00 TRACK 08 AUDIO TITLE "E-Rush - Fuck you man (army of darkness remix)" PERFORMER "Various" INDEX 00 05:35:00FILE "08 - E-Rush - Fuck you man (army of darkness remix).wav" WAVE INDEX 01 00:00:00 TRACK 09 AUDIO TITLE "Kesj and donut - Keep it hardcore (remix)" PERFORMER "Various" INDEX 00 05:51:43FILE "09 - Kesj and donut - Keep it hardcore (remix).wav" WAVE INDEX 01 00:00:00 TRACK 10 AUDIO TITLE "Heart-Core - Gabberlove (hardcoreremix)" PERFORMER "Various" INDEX 00 04:39:20FILE "10 - Heart-Core - Gabberlove (hardcoreremix).wav" WAVE INDEX 01 00:00:00 TRACK 11 AUDIO TITLE "The Accuser - Demons of revival" PERFORMER "Various" INDEX 00 03:41:28FILE "11 - The Accuser - Demons of revival.wav" WAVE INDEX 01 00:00:00 TRACK 12 AUDIO TITLE "R.T.C - We're gonna blow your mind (energie mix)" PERFORMER "Various" INDEX 00 04:45:67FILE "12 - R.T.C - We're gonna blow your mind (energie mix).wav" WAVE INDEX 01 00:00:00 TRACK 13 AUDIO TITLE "High Velocity & The Objector - Rama Jama" PERFORMER "Various" INDEX 00 05:35:27FILE "13 - High Velocity & The Objector - Rama Jama.wav" WAVE INDEX 01 00:00:00 TRACK 14 AUDIO TITLE "Flamman & Abraxas - I'll be your only friend" PERFORMER "Various" INDEX 00 03:05:25FILE "14 - Flamman & Abraxas - I'll be your only friend.wav" WAVE INDEX 01 00:00:00 TRACK 15 AUDIO TITLE "Dr Z-Vago - Mo-Ther-Fu-Ckers" PERFORMER "Various" INDEX 00 03:14:58FILE "15 - Dr Z-Vago - Mo-Ther-Fu-Ckers.wav" WAVE INDEX 01 00:00:00 TRACK 16 AUDIO TITLE "Babanation - Milano overdrive" PERFORMER "Various" INDEX 00 04:02:72FILE "16 - Babanation - Milano overdrive.wav" WAVE INDEX 01 00:00:00 TRACK 17 AUDIO TITLE "Dj Perpetrator - Drop that shit" PERFORMER "Various" INDEX 00 05:34:42FILE "17 - Dj Perpetrator - Drop that shit.wav" WAVE INDEX 01 00:00:00

_________________
Показать сообщения:    

Текущее время: Сегодня 21:10

Часовой пояс: GMT



Вы не можете начинать темы
Вы не можете отвечать на сообщения
Вы не можете редактировать свои сообщения
Вы не можете удалять свои сообщения
Вы не можете голосовать в опросах
Вы не можете прикреплять файлы к сообщениям
Вы не можете скачивать файлы