(Hardcore, Gabber) [CDM] Rotterdam Termination Source - Poing (Remixes) - 1992, FLAC (tracks+.cue), lossless :: Ивановский Торрент трекер
Важное объявление!
У Нас Все раздачи мультитрекерные, при нуле пиров в релизах, можете смело вставать на закачку!
 
Автор Сообщение

HUNTER

Стаж:
4 года 11 месяцев
Сообщений:
66051

Репутация: 101

[+] [-]
Вне форума [Профиль] [ЛС]

Rotterdam Termination Source / Poing (Remixes)
Жанр: Hardcore, Gabber
Носитель: CDM
Год издания: 1992
Издатель (лейбл): Rotterdam Records
Номер по каталогу: ROT 106
Аудиокодек: FLAC (*.flac)
Тип рипа: tracks+.cue
Битрейт аудио: lossless
Продолжительность: 18:53
Источник (релизер): what.cd
Наличие сканов в содержимом раздачи: нет
Треклист:
01. Rotterdam Termination Source - Poing (Stuiterhouse) [04:10]
02. Rotterdam Termination Source - Poing (Tune Request) [04:25]
03. Rotterdam Termination Source - Poing (Jump a Little Higher) [04:26]
04. Rotterdam Termination Source - Poing (Easy Synth) [05:55]

Лог создания рипа

Exact Audio Copy V1.0 beta 3 from 29. August 2011
EAC extraction logfile from 17. December 2014, 17:13
Rotterdam Termination Source / Poing (Remixes)
Used drive : ASUS DRW-24F1ST a Adapter: 0 ID: 1
Read mode : SecureUtilize accurate stream : YesDefeat audio cache : YesMake use of C2 pointers : No
Read offset correction : 6Overread into Lead-In and Lead-Out : NoFill up missing offset samples with silence : YesDelete leading and trailing silent blocks : NoNull samples used in CRC calculations : YesUsed interface : Native Win32 interface for Win NT & 2000Gap handling : Appended to previous track
Used output format : User Defined EncoderSelected bitrate : 1024 kBit/sQuality : HighAdd ID3 tag : NoCommand line compressor : F:\Exact Audio Copy\Flac\flac.exeAdditional command line options : -8 -V -T "ARTIST=%artist%" -T "TITLE=%title%" -T "ALBUM=%albumtitle%" -T "DATE=%year%" -T "TRACKNUMBER=%tracknr%" -T "GENRE=%genre%" -T "PERFORMER=%albuminterpret%" -T "COMPOSER=%composer%" %haslyrics%--tag-from-file=LYRICS="%lyricsfile%"%haslyrics% -T "ALBUMARTIST=%albumartist%" -T "DISCNUMBER=%cdnumber%" -T "TOTALDISCS=%totalcds%" -T "TOTALTRACKS=%numtracks%" -T "COMMENT=%comment%" %source% -o %dest%
TOC of the extracted CD
Track | Start | Length | Start sector | End sector --------------------------------------------------------- 1 | 0:00.00 | 4:09.08 | 0 | 18682 2 | 4:09.08 | 4:24.10 | 18683 | 38492 3 | 8:33.18 | 4:25.30 | 38493 | 58397 4 | 12:58.48 | 5:54.05 | 58398 | 84952
Track 1
Filename H:\EAC rips\FLAC\Rotterdam Termination Source - Poing (Remixes) (CDS) (1992) [FLAC]\01 - Poing (Stuiterhouse).wav
Pre-gap length 0:00:02.00
Peak level 100.0 % Extraction speed 1.7 X Track quality 100.0 % Test CRC 1AEC1CAB Copy CRC 1AEC1CAB Track not present in AccurateRip database Copy OK
Track 2
Filename H:\EAC rips\FLAC\Rotterdam Termination Source - Poing (Remixes) (CDS) (1992) [FLAC]\02 - Poing (Tune Request).wav
Pre-gap length 0:00:01.73
Peak level 76.1 % Extraction speed 1.9 X Track quality 100.0 % Test CRC C702E7C3 Copy CRC C702E7C3 Track not present in AccurateRip database Copy OK
Track 3
Filename H:\EAC rips\FLAC\Rotterdam Termination Source - Poing (Remixes) (CDS) (1992) [FLAC]\03 - Poing (Jump a Little Higher).wav
Pre-gap length 0:00:02.06
Peak level 85.3 % Extraction speed 2.1 X Track quality 100.0 % Test CRC 7B539639 Copy CRC 7B539639 Track not present in AccurateRip database Copy OK
Track 4
Filename H:\EAC rips\FLAC\Rotterdam Termination Source - Poing (Remixes) (CDS) (1992) [FLAC]\04 - Poing (Easy Synth).wav
Pre-gap length 0:00:01.73
Peak level 80.0 % Extraction speed 2.4 X Track quality 100.0 % Test CRC 3F506952 Copy CRC 3F506952 Track not present in AccurateRip database Copy OK
None of the tracks are present in the AccurateRip database
No errors occurred
End of status report
---- CUETools DB Plugin V2.1.3
[CTDB TOCID: lQYw5nh4EYe7GI5BVCAG8bRjHtY-] found, Submit result: lQYw5nh4EYe7GI5BVCAG8bRjHtY- has been confirmed[2cca40d2] (1/1) Accurately ripped
==== Log checksum 632E96C2D68007895E48651EC9F631539613FCC174DD12B85829E908EDA46ABC ====

Содержание индексной карты (.CUE)

REM GENRE GabberREM DATE 1992REM DISCID 24046C04REM COMMENT "ExactAudioCopy v1.0b3"PERFORMER "Rotterdam Termination Source"TITLE "Poing (Remixes)"FILE "01 - Poing (Stuiterhouse).wav" WAVE TRACK 01 AUDIO TITLE "Poing (Stuiterhouse)" PERFORMER "Rotterdam Termination Source" INDEX 01 00:00:00 TRACK 02 AUDIO TITLE "Poing (Tune Request)" PERFORMER "Rotterdam Termination Source" INDEX 00 04:07:28FILE "02 - Poing (Tune Request).wav" WAVE INDEX 01 00:00:00 TRACK 03 AUDIO TITLE "Poing (Jump a Little Higher)" PERFORMER "Rotterdam Termination Source" INDEX 00 04:22:05FILE "03 - Poing (Jump a Little Higher).wav" WAVE INDEX 01 00:00:00 TRACK 04 AUDIO TITLE "Poing (Easy Synth)" PERFORMER "Rotterdam Termination Source" INDEX 00 04:23:50FILE "04 - Poing (Easy Synth).wav" WAVE INDEX 01 00:00:00

_________________
Показать сообщения:    

Текущее время: Сегодня 03:49

Часовой пояс: GMT



Вы не можете начинать темы
Вы не можете отвечать на сообщения
Вы не можете редактировать свои сообщения
Вы не можете удалять свои сообщения
Вы не можете голосовать в опросах
Вы не можете прикреплять файлы к сообщениям
Вы не можете скачивать файлы