Важное объявление!
У Нас Все раздачи мультитрекерные, при нуле пиров в релизах, можете смело вставать на закачку!
 
Автор Сообщение

HUNTER

Стаж:
4 года 10 месяцев
Сообщений:
65522

Репутация: 101

[+] [-]
Вне форума [Профиль] [ЛС]

Rotterdam Termination Source / Merry X-Mess
Жанр: Hardcore, Gabber
Носитель: CDM
Год издания: 1993
Издатель (лейбл): Rotterdam Records
Номер по каталогу: ROT 129
Аудиокодек: FLAC (*.flac)
Тип рипа: tracks+.cue
Битрейт аудио: lossless
Продолжительность: 24:35
Источник (релизер): what.cd
Наличие сканов в содержимом раздачи: нет
Треклист:
01. Rotterdam Termination Source - Merry X-Mess (Radio Edit) [03:50]
02. Rotterdam Termination Source - Merry X-Mess (Original Version) [04:15]
03. Rotterdam Termination Source - Child Abuser [04:58]
04. Rotterdam Termination Source - Excell [03:40]
05. Rotterdam Termination Source - Poing (Remixed By Mustafa Alici) [03:38]
06. Rotterdam Termination Source - 2 Limited Ugly Faces [04:16]

Лог создания рипа

Exact Audio Copy V1.0 beta 3 from 29. August 2011
EAC extraction logfile from 17. December 2014, 22:15
Rotterdam Termination Source / Merry X-Mess
Used drive : ATAPI iHAS324 B Adapter: 0 ID: 2
Read mode : SecureUtilize accurate stream : YesDefeat audio cache : YesMake use of C2 pointers : No
Read offset correction : 6Overread into Lead-In and Lead-Out : NoFill up missing offset samples with silence : YesDelete leading and trailing silent blocks : NoNull samples used in CRC calculations : YesUsed interface : Native Win32 interface for Win NT & 2000Gap handling : Appended to previous track
Used output format : User Defined EncoderSelected bitrate : 1024 kBit/sQuality : HighAdd ID3 tag : NoCommand line compressor : F:\Exact Audio Copy\Flac\flac.exeAdditional command line options : -8 -V -T "ARTIST=%artist%" -T "TITLE=%title%" -T "ALBUM=%albumtitle%" -T "DATE=%year%" -T "TRACKNUMBER=%tracknr%" -T "GENRE=%genre%" -T "PERFORMER=%albuminterpret%" -T "COMPOSER=%composer%" %haslyrics%--tag-from-file=LYRICS="%lyricsfile%"%haslyrics% -T "ALBUMARTIST=%albumartist%" -T "DISCNUMBER=%cdnumber%" -T "TOTALDISCS=%totalcds%" -T "TOTALTRACKS=%numtracks%" -T "COMMENT=%comment%" %source% -o %dest%
TOC of the extracted CD
Track | Start | Length | Start sector | End sector --------------------------------------------------------- 1 | 0:00.00 | 3:49.52 | 0 | 17226 2 | 3:49.52 | 4:14.10 | 17227 | 36286 3 | 8:03.62 | 4:57.73 | 36287 | 58634 4 | 13:01.60 | 3:39.05 | 58635 | 75064 5 | 16:40.65 | 3:37.37 | 75065 | 91376 6 | 20:18.27 | 4:15.50 | 91377 | 110551
Track 1
Filename H:\EAC rips\FLAC\Rotterdam Termination Source - Merry X-Mess (CDS) (1993) [FLAC]\01 - Merry X-Mess (Radio Edit).wav
Pre-gap length 0:00:02.00
Peak level 87.7 % Extraction speed 3.3 X Track quality 100.0 % Test CRC C5277E44 Copy CRC C5277E44 Accurately ripped (confidence 2) [263C5F3E] (AR v1) Copy OK
Track 2
Filename H:\EAC rips\FLAC\Rotterdam Termination Source - Merry X-Mess (CDS) (1993) [FLAC]\02 - Merry X-Mess (Original Version).wav
Pre-gap length 0:00:02.66
Peak level 84.0 % Extraction speed 3.8 X Track quality 100.0 % Test CRC 32F4BF5E Copy CRC 32F4BF5E Accurately ripped (confidence 2) [F0C5C4C4] (AR v1) Copy OK
Track 3
Filename H:\EAC rips\FLAC\Rotterdam Termination Source - Merry X-Mess (CDS) (1993) [FLAC]\03 - Child Abuser.wav
Pre-gap length 0:00:05.29
Peak level 76.5 % Extraction speed 4.3 X Track quality 100.0 % Test CRC 35F71799 Copy CRC 35F71799 Accurately ripped (confidence 2) [6C0FE129] (AR v1) Copy OK
Track 4
Filename H:\EAC rips\FLAC\Rotterdam Termination Source - Merry X-Mess (CDS) (1993) [FLAC]\04 - Excell.wav
Pre-gap length 0:00:04.06
Peak level 70.0 % Extraction speed 4.4 X Track quality 100.0 % Test CRC 487B87F2 Copy CRC 487B87F2 Accurately ripped (confidence 2) [AE6B2F8C] (AR v1) Copy OK
Track 5
Filename H:\EAC rips\FLAC\Rotterdam Termination Source - Merry X-Mess (CDS) (1993) [FLAC]\05 - Poing (Remixed By Mustafa Alici).wav
Pre-gap length 0:00:02.50
Peak level 70.4 % Extraction speed 4.6 X Track quality 100.0 % Test CRC 1F3FBB07 Copy CRC 1F3FBB07 Accurately ripped (confidence 2) [4D1E95E5] (AR v1) Copy OK
Track 6
Filename H:\EAC rips\FLAC\Rotterdam Termination Source - Merry X-Mess (CDS) (1993) [FLAC]\06 - 2 Limited Ugly Faces.wav
Pre-gap length 0:00:04.06
Peak level 97.1 % Extraction speed 4.1 X Track quality 99.9 % Test CRC 1111C9D5 Copy CRC 1111C9D5 Accurately ripped (confidence 2) [E7C11541] (AR v1) Copy OK
All tracks accurately ripped
No errors occurred
End of status report
---- CUETools DB Plugin V2.1.3
[CTDB TOCID: IC4dkmw3osjF6OiipWB9cqXm8Xo-] found, Submit result: IC4dkmw3osjF6OiipWB9cqXm8Xo- has been confirmed[363eba41] (2/2) Accurately ripped
==== Log checksum C0DC51F9B69907F871D19C62477F9B9D7816932F599AD6A6F0363F0C37FF228B ====

Содержание индексной карты (.CUE)

REM GENRE GabberREM DATE 1993REM DISCID 3305C206REM COMMENT "ExactAudioCopy v1.0b3"PERFORMER "Rotterdam Termination Source"TITLE "Merry X-Mess"FILE "01 - Merry X-Mess (Radio Edit).wav" WAVE TRACK 01 AUDIO TITLE "Merry X-Mess (Radio Edit)" PERFORMER "Rotterdam Termination Source" INDEX 01 00:00:00 TRACK 02 AUDIO TITLE "Merry X-Mess (Original Version)" PERFORMER "Rotterdam Termination Source" INDEX 00 03:47:02FILE "02 - Merry X-Mess (Original Version).wav" WAVE INDEX 01 00:00:00 TRACK 03 AUDIO TITLE "Child Abuser" PERFORMER "Rotterdam Termination Source" INDEX 00 04:08:63FILE "03 - Child Abuser.wav" WAVE INDEX 01 00:00:00 TRACK 04 AUDIO TITLE "Excell" PERFORMER "Rotterdam Termination Source" INDEX 00 04:53:68FILE "04 - Excell.wav" WAVE INDEX 01 00:00:00 TRACK 05 AUDIO TITLE "Poing (Remixed By Mustafa Alici)" PERFORMER "Rotterdam Termination Source" INDEX 00 03:36:42FILE "05 - Poing (Remixed By Mustafa Alici).wav" WAVE INDEX 01 00:00:00 TRACK 06 AUDIO TITLE "2 Limited Ugly Faces" PERFORMER "Rotterdam Termination Source" INDEX 00 03:33:32FILE "06 - 2 Limited Ugly Faces.wav" WAVE INDEX 01 00:00:00

_________________
Показать сообщения:    

Текущее время: Сегодня 16:38

Часовой пояс: GMT



Вы не можете начинать темы
Вы не можете отвечать на сообщения
Вы не можете редактировать свои сообщения
Вы не можете удалять свои сообщения
Вы не можете голосовать в опросах
Вы не можете прикреплять файлы к сообщениям
Вы не можете скачивать файлы